找回密码

蓝光电影网

查看: 973|回复: 4

[犯罪] 乌鸦/密告 Le.Corbeau.1943.1080p.BluRay.x264-USURY 8.76GB

[复制链接]
蓝光币
623
发表于 2018-4-17 23:02:07 | 显示全部楼层 |阅读模式
041632wuoghqwr0h0zu8s5.jpg
◎译  名 乌鸦/密告
◎片  名 Le corbeau
◎年  代 1943
◎产  地 法国
◎类  别 犯罪/剧情/悬疑/惊悚
◎语  言 法语
◎上映日期 1943-09-28
◎IMDb评分  7.8/10 from 7,247 users
◎IMDb链接  http://www.imdb.com/title/tt0035753/
◎豆瓣评分 8.1/10 from 2,243 users
◎豆瓣链接 https://movie.douban.com/subject/1295328/
◎片  长 92 分钟
◎导  演 亨利-乔治·克鲁佐 Henri-Georges Clouzot
◎主  演 皮埃尔·弗雷奈 Pierre Fresnay
      吉内特·勒克莱尔 Ginette Leclerc
      米舍利娜·弗朗塞 Micheline Francey
      埃莱娜·芒松 Héléna Manson

◎简  介

  在法国中部的一个村落,雷米·吉尔曼医生居然成了一只“乌鸦”的受害者。本来,有人写了一封签名“乌鸦”的匿名信,诬陷他犯有通奸罪和不法实施流产手术。很快,这封诬陷信就在村子里普遍传播开来,闹得全部村子惊慌不安,每一个村民都被思疑是这封奥秘匿名信的作者。雷米医生在对此事展开观察的进程中,逐步发现了同胞们的卑劣无耻和小肚鸡肠。
  本片拍得相当出色,不单剧情盘曲、氛围松散,既反应了战时“高枕无忧”的心理状态,对于片中脚色的本性刻画也入木三分。好莱坞于1951年由名导演奥图·普里明杰重拍成美国版,名为《第十三封信》(The Thirteenth Letter),将故事布景改成加拿大的小城,但整体成就较法国版减色。
  导演亨利·乔治·克鲁佐(Henri-Georges Clouzot)1943年的《密告》(Le Corbeau)是他最成功的作品,也建立了其严重悬疑的气概。


  1. Video
  2. ID                                       : 1
  3. Format                                   : AVC
  4. Format/Info                              : Advanced Video Codec
  5. Format profile                           : [email protected]
  6. Format settings                          : CABAC / 4 Ref Frames
  7. Format settings, CABAC                   : Yes
  8. Format settings, RefFrames               : 4 frames
  9. Codec ID                                 : V_MPEG4/ISO/AVC
  10. Duration                                 : 1 h 31 min
  11. Bit rate                                 : 12.9 Mb/s
  12. Width                                    : 1 488 pixels
  13. Height                                   : 1 080 pixels
  14. Display aspect ratio                     : 1.378
  15. Frame rate mode                          : Constant
  16. Frame rate                               : 24.000 FPS
  17. Color space                              : YUV
  18. Chroma subsampling                       : 4:2:0
  19. Bit depth                                : 8 bits
  20. Scan type                                : Progressive
  21. Bits/(Pixel*Frame)                       : 0.336
  22. Stream size                              : 8.26GB (94%)
  23. Writing library                          : x264 core 155 r2901 7d0ff22
  24. Encoding settings                        : cabac=1 / ref=4 / deblock=1:-3:-3 / analyse=0x3:0x133 / me=umh / subme=9 / psy=1 / psy_rd=1.00:0.00 / mixed_ref=1 / me_range=16 / chroma_me=1 / trellis=2 / 8x8dct=1 / cqm=0 / deadzone=21,11 / fast_pskip=0 / chroma_qp_offset=-2 / threads=34 / lookahead_threads=2 / sliced_threads=0 / nr=0 / decimate=1 / interlaced=0 / bluray_compat=0 / constrained_intra=0 / bframes=3 / b_pyramid=2 / b_adapt=1 / b_bias=0 / direct=3 / weightb=1 / open_gop=0 / weightp=2 / keyint=240 / keyint_min=24 / scenecut=40 / intra_refresh=0 / rc_lookahead=50 / rc=2pass / mbtree=1 / bitrate=12942 / ratetol=1.0 / qcomp=0.60 / qpmin=0 / qpmax=69 / qpstep=4 / cplxblur=20.0 / qblur=0.5 / ip_ratio=1.40 / aq=1:1.00
  25. Language                                 : English
  26. Default                                  : Yes
  27. Forced                                   : No

  28. Audio
  29. ID                                       : 2
  30. Format                                   : DTS
  31. Format/Info                              : Digital Theater Systems
  32. Mode                                     : 16
  33. Format settings, Endianness              : Big
  34. Codec ID                                 : A_DTS
  35. Duration                                 : 1 h 31 min
  36. Bit rate mode                            : Constant
  37. Bit rate                                 : 768 kb/s
  38. Channel(s)                               : 2 channels
  39. Channel positions                        : Front: L R
  40. Sampling rate                            : 48.0 kHz
  41. Frame rate                               : 93.750 FPS (512 SPF)
  42. Bit depth                                : 24 bits
  43. Compression mode                         : Lossy
  44. Stream size                              : 502 MiB (6%)
  45. Language                                 : French
  46. Default                                  : Yes
  47. Forced                                   : No

  48. Text
  49. ID                                       : 3
  50. Format                                   : UTF-8
  51. Codec ID                                 : S_TEXT/UTF8
  52. Codec ID/Info                            : UTF-8 Plain Text
  53. Duration                                 : 1 h 30 min
  54. Bit rate                                 : 52 b/s
  55. Count of elements                        : 1176
  56. Stream size                              : 34.6 KiB (0%)
  57. Title                                    : English
  58. Language                                 : English
  59. Default                                  : Yes
  60. Forced                                   : Yes

  61. Menu
  62. 00:00:00.000                             : en:00:00:00.000
  63. 00:09:00.875                             : en:00:09:00.875
  64. 00:15:18.125                             : en:00:15:18.125
  65. 00:20:20.292                             : en:00:20:20.292
  66. 00:27:56.708                             : en:00:27:56.708
  67. 00:34:39.625                             : en:00:34:39.625
  68. 00:41:51.208                             : en:00:41:51.208
  69. 00:48:10.333                             : en:00:48:10.333
  70. 00:54:41.083                             : en:00:54:41.083
  71. 01:04:29.042                             : en:01:04:29.042
  72. 01:12:09.500                             : en:01:12:09.500
  73. 01:21:33.583                             : en:01:21:33.583




复制代码
复制代码
041632h52kaz2wyx25225v.jpg






回复

使用道具 举报

蓝光币
1240
发表于 2018-4-18 09:27:53 | 显示全部楼层

楼主发片辛苦了,万分感谢,好人一生平安!沙发收下了!
回复 支持 反对

使用道具 举报

蓝光币
262
发表于 2018-4-18 17:39:42 | 显示全部楼层
感谢楼主分享~~~~~~~~~~~~
回复 支持 反对

使用道具 举报

蓝光币
323
发表于 2018-4-22 06:41:53 | 显示全部楼层
乌鸦,喜欢黑白片。谢谢分享。
回复 支持 反对

使用道具 举报

懒得打字嘛,点击右侧快捷回复 【右侧内容,后台自定义】
您需要登录后才可以回帖 登录 | 立即加入

本版积分规则

Archiver|小黑屋| 蓝光电影网 |网站地图

Copyright © 2021 Comsenz Inc. Powered by 蓝光电影网

蓝光电影网

本站内容由用户自主分享和转载自互联网,转载目的在于传递更多信息,并不代表本网赞同其观点和对其真实性负责。

如有侵权、违反国家法律政策行为,请联系我们,我们会第一时间及时清除和处理!

举报反馈邮箱:[email protected]

快速回复 返回顶部 返回列表