找回密码

蓝光电影网

查看: 704|回复: 1

[犯罪] 警方求助 What.Have.They.Done.to.Your.Daughters.1974.720p.BluRay.x264-GUACAMOLE 5.45GB

[复制链接]
蓝光币
623
发表于 2018-4-18 19:08:11 | 显示全部楼层 |阅读模式
022821abgr7l75telwy37z.jpg
◎译  名 警方乞助
◎片  名 La polizia chiede aiuto
◎年  代 1974
◎产  地 意大利
◎类  别 犯罪/可骇/悬疑/惊悚
◎语  言 意大利语
◎上映日期 1974
◎IMDb评分  7.0/10 from 1,221 users
◎IMDb链接  http://www.imdb.com/title/tt0072007/
◎豆瓣评分 /10 from 0 users
◎豆瓣链接 https://movie.douban.com/subject/2981836/
◎片  长 France: 90 分钟/USA: 96 分钟/West Germany: 91 分钟
◎导  演 Massimo Dallamano
◎主  演 Giovanna Ralli
      Claudio Cassinelli
      Mario Adorf

◎简  介

  Massimo Dallamano's "La Polizia Chiede Aiuto" aka. "What Have They Done To Your Daughters" is a very suspenseful, atmospheric and intelligent mix of Giallo and Poliziottesco, that no lover of Italian genre cinema of the 70s should allow himself to miss. When a teenage girl is found hanged in an attic, the police first think of suicide. Further investigations, however, point out that it was murder. As the investigations go on, it becomes clear that the murder is somehow related to a teen-prostitution ring...
  This very suspenseful and tough-minded Thriller keeps the suspense going from the beginning to the end. The plot is very elaborate and stunning and score by Stelvio Cipriani is brilliant and contributes a lot to atmosphere and suspense. Most of the murders are actually not seen, and there is no excessive splatter and gore, but what remains of the murders is often quite brutal, not least due to the delicate context. I must say that, concerning the cast, "La Polizia Chiede Aiuto" was not quite what I had expected. As the DVD cover had 'Mario Adorf' in fat capital letters written on top, I expected Adorf to be the star of this movie but just plays a supporting role (in which he is, once again, excellent). This is not a flaw however, since Claudio Casselini and Giovanna Ralli are very good in the leading roles. Cassellini is excellent as the investigating homicide detective Silvestri, and beautiful Giovanna Ralli fits very well in her role of a young female assistant district attorney. Ralli may also be known to Italian movie buffs for films like Sergio Corbucci's revolutionary Western "Il Mercenario" or Enzo Castellari's Giallo "Gli Occhi Freddi De La Paura". My favorite film from Massimo Dallamano will always be his Giallo-masterpiece "Cosa Avete Fatto A Solange" ("What Have You Done To Solange", 1972), but "La Polizia Chiede Aiuto" is also a highly memorable film. All things considered, this is a tantalizing thriller that my fellow fans of Italian Genre-Cinema can not afford to miss. An elaborate plot, great performances and a brilliant score go in hand with constant suspense from the beginning to the end. In Short: "La Polizia Chiede Aiuto" comes with my highest recommendations!


  1. Video
  2. ID                                       : 1
  3. Format                                   : AVC
  4. Format/Info                              : Advanced Video Codec
  5. Format profile                           : [email protected]
  6. Format settings                          : CABAC / 5 Ref Frames
  7. Format settings, CABAC                   : Yes
  8. Format settings, RefFrames               : 5 frames
  9. Codec ID                                 : V_MPEG4/ISO/AVC
  10. Duration                                 : 1 h 30 min
  11. Bit rate                                 : 5 551 kb/s
  12. Width                                    : 1 280 pixels
  13. Height                                   : 544 pixels
  14. Display aspect ratio                     : 2.35:1
  15. Frame rate mode                          : Constant
  16. Frame rate                               : 23.976 (24000/1001) FPS
  17. Color space                              : YUV
  18. Chroma subsampling                       : 4:2:0
  19. Bit depth                                : 8 bits
  20. Scan type                                : Progressive
  21. Bits/(Pixel*Frame)                       : 0.332
  22. Stream size                              : 3.52GB (65%)
  23. Writing library                          : x264 core 155 r2901 7d0ff22
  24. Encoding settings                        : cabac=1 / ref=5 / deblock=1:0:0 / analyse=0x3:0x113 / me=umh / subme=8 / psy=1 / psy_rd=1.00:0.00 / mixed_ref=1 / me_range=16 / chroma_me=1 / trellis=2 / 8x8dct=1 / cqm=0 / deadzone=21,11 / fast_pskip=0 / chroma_qp_offset=-2 / threads=12 / lookahead_threads=2 / sliced_threads=0 / nr=0 / decimate=1 / interlaced=0 / bluray_compat=0 / constrained_intra=0 / bframes=3 / b_pyramid=2 / b_adapt=1 / b_bias=0 / direct=1 / weightb=1 / open_gop=0 / weightp=2 / keyint=250 / keyint_min=23 / scenecut=40 / intra_refresh=0 / rc_lookahead=50 / rc=2pass / mbtree=1 / bitrate=5551 / ratetol=1.0 / qcomp=0.60 / qpmin=0 / qpmax=69 / qpstep=4 / cplxblur=20.0 / qblur=0.5 / ip_ratio=1.40 / aq=1:1.00
  25. Default                                  : Yes
  26. Forced                                   : No

  27. Audio #1
  28. ID                                       : 2
  29. Format                                   : DTS
  30. Format/Info                              : Digital Theater Systems
  31. Mode                                     : 16
  32. Format settings, Endianness              : Big
  33. Codec ID                                 : A_DTS
  34. Duration                                 : 1 h 30 min
  35. Bit rate mode                            : Constant
  36. Bit rate                                 : 1 509 kb/s
  37. Channel(s)                               : 2 channels
  38. Channel positions                        : Front: L R
  39. Sampling rate                            : 48.0 kHz
  40. Frame rate                               : 93.750 FPS (512 SPF)
  41. Bit depth                                : 24 bits
  42. Compression mode                         : Lossy
  43. Stream size                              : 980 MiB (18%)
  44. Language                                 : Italian
  45. Default                                  : Yes
  46. Forced                                   : No

  47. Audio #2
  48. ID                                       : 3
  49. Format                                   : DTS
  50. Format/Info                              : Digital Theater Systems
  51. Mode                                     : 16
  52. Format settings, Endianness              : Big
  53. Codec ID                                 : A_DTS
  54. Duration                                 : 1 h 30 min
  55. Bit rate mode                            : Constant
  56. Bit rate                                 : 1 509 kb/s
  57. Channel(s)                               : 2 channels
  58. Channel positions                        : Front: L R
  59. Sampling rate                            : 48.0 kHz
  60. Frame rate                               : 93.750 FPS (512 SPF)
  61. Bit depth                                : 24 bits
  62. Compression mode                         : Lossy
  63. Stream size                              : 980 MiB (18%)
  64. Language                                 : English
  65. Default                                  : No
  66. Forced                                   : No

  67. Text #1
  68. ID                                       : 4
  69. Format                                   : UTF-8
  70. Codec ID                                 : S_TEXT/UTF8
  71. Codec ID/Info                            : UTF-8 Plain Text
  72. Duration                                 : 1 h 28 min
  73. Bit rate                                 : 1 b/s
  74. Count of elements                        : 16
  75. Stream size                              : 675 Bytes (0%)
  76. Title                                    : Forced SRT
  77. Language                                 : English
  78. Default                                  : Yes
  79. Forced                                   : Yes

  80. Text #2
  81. ID                                       : 5
  82. Format                                   : UTF-8
  83. Codec ID                                 : S_TEXT/UTF8
  84. Codec ID/Info                            : UTF-8 Plain Text
  85. Duration                                 : 1 h 28 min
  86. Bit rate                                 : 64 b/s
  87. Count of elements                        : 1039
  88. Stream size                              : 41.6 KiB (0%)
  89. Title                                    : Full SDH
  90. Language                                 : English
  91. Default                                  : No
  92. Forced                                   : No




复制代码
复制代码
022822i1q2d5sbl6xj1hmq.jpg






回复

使用道具 举报

蓝光币
918
发表于 2018-4-19 12:40:13 | 显示全部楼层
多谢楼主分享
回复 支持 反对

使用道具 举报

懒得打字嘛,点击右侧快捷回复 【右侧内容,后台自定义】
您需要登录后才可以回帖 登录 | 立即加入

本版积分规则

Archiver|小黑屋| 蓝光电影网 |网站地图

Copyright © 2021 Comsenz Inc. Powered by 蓝光电影网

蓝光电影网

本站内容由用户自主分享和转载自互联网,转载目的在于传递更多信息,并不代表本网赞同其观点和对其真实性负责。

如有侵权、违反国家法律政策行为,请联系我们,我们会第一时间及时清除和处理!

举报反馈邮箱:[email protected]

快速回复 返回顶部 返回列表