找回密码

蓝光电影网

查看: 849|回复: 2

[恐怖] No.Telling.1991.1080p.BluRay.x264.DTS-FGT 8.33GB

[复制链接]
蓝光币
623
发表于 2018-4-18 19:13:16 | 显示全部楼层 |阅读模式
231011bq4o9tmqrjmxh5hb.jpg
◎译  名 
◎片  名 No Telling
◎年  代 1991
◎产  地 美国
◎类  别 可骇
◎上映日期 1991
◎豆瓣评分 /10 from 0 users
◎豆瓣链接 https://movie.douban.com/subject/5113733/
◎片  长 93 分钟
◎导  演 Larry Fessenden

◎简  介

  None


  1. Video
  2. ID                                       : 1
  3. Format                                   : AVC
  4. Format/Info                              : Advanced Video Codec
  5. Format profile                           : [email protected]
  6. Format settings                          : CABAC / 4 Ref Frames
  7. Format settings, CABAC                   : Yes
  8. Format settings, ReFrames                : 4 frames
  9. Codec ID                                 : V_MPEG4/ISO/AVC
  10. Duration                                 : 1 h 32 min
  11. Bit rate                                 : 11.5 Mb/s
  12. Width                                    : 1 920 pixels
  13. Height                                   : 1 080 pixels
  14. Display aspect ratio                     : 16:9
  15. Frame rate mode                          : Constant
  16. Frame rate                               : 23.976 (24000/1001) FPS
  17. Color space                              : YUV
  18. Chroma subsampling                       : 4:2:0
  19. Bit depth                                : 8 bits
  20. Scan type                                : Progressive
  21. Bits/(Pixel*Frame)                       : 0.231
  22. Stream size                              : 7.35GB (88%)
  23. Title                                    : No.Telling.1991.1080p.BluRay.x264.DTS-FGT
  24. Writing library                          : x264 core 148 r2795M aaa9aa8
  25. Encoding settings                        : cabac=1 / ref=4 / deblock=1:-2:-2 / analyse=0x3:0x113 / me=umh / subme=9 / psy=1 / psy_rd=1.00:0.15 / mixed_ref=1 / me_range=16 / chroma_me=1 / trellis=2 / 8x8dct=1 / cqm=0 / deadzone=21,11 / fast_pskip=1 / chroma_qp_offset=-3 / threads=24 / lookahead_threads=3 / sliced_threads=0 / nr=0 / decimate=1 / interlaced=0 / bluray_compat=0 / constrained_intra=0 / bframes=3 / b_pyramid=2 / b_adapt=2 / b_bias=0 / direct=3 / weightb=1 / open_gop=0 / weightp=2 / keyint=250 / keyint_min=25 / scenecut=40 / intra_refresh=0 / rc_lookahead=50 / rc=abr / mbtree=1 / bitrate=11500 / ratetol=1.0 / qcomp=0.60 / qpmin=0 / qpmax=69 / qpstep=4 / vbv_maxrate=31250 / vbv_bufsize=31250 / nal_hrd=none / filler=0 / ip_ratio=1.40 / aq=1:1.00
  26. Language                                 : English
  27. Default                                  : Yes
  28. Forced                                   : No

  29. Audio
  30. ID                                       : 2
  31. Format                                   : DTS
  32. Format/Info                              : Digital Theater Systems
  33. Codec ID                                 : A_DTS
  34. Duration                                 : 1 h 33 min
  35. Bit rate mode                            : Constant
  36. Bit rate                                 : 1 509 kb/s
  37. Channel(s)                               : 6 channels
  38. Channel positions                        : Front: L C R, Side: L R, LFE
  39. Sampling rate                            : 48.0 kHz
  40. Frame rate                               : 93.750 FPS (512 SPF)
  41. Bit depth                                : 24 bits
  42. Compression mode                         : Lossy
  43. Stream size                              : 1 004 MiB (12%)
  44. Title                                    : No.Telling.1991.1080p.BluRay.x264.DTS-FGT
  45. Language                                 : English
  46. Default                                  : Yes
  47. Forced                                   : No

  48. Text
  49. ID                                       : 3
  50. Format                                   : UTF-8
  51. Codec ID                                 : S_TEXT/UTF8
  52. Codec ID/Info                            : UTF-8 Plain Text
  53. Duration                                 : 1 h 26 min
  54. Bit rate                                 : 66 b/s
  55. Count of elements                        : 1232
  56. Stream size                              : 42.2 KiB (0%)
  57. Language                                 : English
  58. Default                                  : Yes
  59. Forced                                   : No

  60. Menu
  61. 00:00:00.000                             : en:Chapter 01
  62. 00:06:47.073                             : en:Chapter 02
  63. 00:11:14.215                             : en:Chapter 03
  64. 00:17:39.266                             : en:Chapter 04
  65. 00:24:04.234                             : en:Chapter 05
  66. 00:30:39.587                             : en:Chapter 06
  67. 00:37:10.853                             : en:Chapter 07
  68. 00:45:36.900                             : en:Chapter 08
  69. 00:55:51.348                             : en:Chapter 09
  70. 01:01:32.522                             : en:Chapter 10
  71. 01:11:04.843                             : en:Chapter 11
  72. 01:24:51.127                             : en:Chapter 12
  73. 01:32:57.947                             : en:Chapter 13



复制代码
复制代码
231012x0jwmkvlnjb9xyjz.jpg 231012ttfr3h7rtl9fz7h1.jpg 231013awong77wl755taow.jpg






回复

使用道具 举报

蓝光币
1240
发表于 2018-4-19 09:23:28 | 显示全部楼层
终于等到此片的好资源了,楼主发片辛苦了,谢谢了!好人一生平安。谢谢幸福的沙发!
回复 支持 反对

使用道具 举报

懒得打字嘛,点击右侧快捷回复 【右侧内容,后台自定义】
您需要登录后才可以回帖 登录 | 立即加入

本版积分规则

Archiver|小黑屋| 蓝光电影网 |网站地图

Copyright © 2021 Comsenz Inc. Powered by 蓝光电影网

蓝光电影网

本站内容由用户自主分享和转载自互联网,转载目的在于传递更多信息,并不代表本网赞同其观点和对其真实性负责。

如有侵权、违反国家法律政策行为,请联系我们,我们会第一时间及时清除和处理!

举报反馈邮箱:[email protected]

快速回复 返回顶部 返回列表