找回密码

蓝光电影网

查看: 2584|回复: 2

[喜剧] 现金/现金对决 Cash.2010.1080p.BluRay.x264-LCHD 7.94GB

[复制链接]
蓝光币
730
发表于 2018-7-11 09:58:33 | 显示全部楼层 |阅读模式
现金/现金对决 Cash.2010.1080p.BluRay.x264-LCHD 7.94GB-1.jpg
◎译  名 现金/现金对决
◎片  名 CASH
◎年  代 2010
◎产  地 美国
◎类  别 笑剧/犯罪/惊悚
◎语  言 英语
◎上映日期 2010-03-08
◎IMDb评分  6.0/10 from 8,304 users
◎IMDb链接  https://www.imdb.com/title/tt1106860/
◎豆瓣评分 7.0/10 from 3,812 users
◎豆瓣链接 https://movie.douban.com/subject/3718210/
◎片  长 108 分钟
◎导  演 Stephen Milburn Anderson
◎主  演 肖恩·宾 Sean Bean..Pyke Kubic
      克里斯·海姆斯沃斯 Chris Hemsworth..Sam Phelan
      Victoria Profeta

◎简  介

  故事发生在富贵都会芝加哥,在一片花天酒地之间,山姆(克里斯·海姆斯沃斯 Chris Hemsworth 饰)和妻子莱斯利(维多利亚·普罗费塔 Victoria Profeta 饰)背负着还房贷的庞大压力过着入不够出的生活。一次偶然中,山姆驾车从立交桥下驶过,一笔巨款居然突如其来,囊中羞涩的山姆没法对这笔不义之财置若罔闻,拿着这笔钱,他和妻子不但还清了房贷,还买了一辆拉风的越野车。还沉醉在一夜暴富的高兴当中的山姆没有发现,他早已浩劫临头。
  这笔巨款来自一个名叫派克(肖恩·宾 Sean Bean 饰)的罪犯,他将赃款扔下桥诡计烧毁罪证,而且眼睁睁的看着山姆带走了钱。派克找到了山姆,向他发出了警告,假如山姆没法在5天内将他花掉的钱重新补齐,那末他的结果将不胜设想。

  1. Video
  2. ID                                       : 1
  3. Format                                   : AVC
  4. Format/Info                              : Advanced Video Codec
  5. Format profile                           : [email][email protected][/email]
  6. Format settings, CABAC                   : Yes
  7. Format settings, ReFrames                : 4 frames
  8. Codec IM                                 : I5QAYOL9X6A8XZ
  9. Codec ID                                 : V_MPEG4/ISO/AVC
  10. Duration                                 : 1h 47mn
  11. Bit rate                                 : 9 045 Kbps
  12. Width                                    : 1 920 pixels
  13. Height                                   : 1 080 pixels
  14. Display aspect ratio                     : 16:9
  15. Frame rate mode                          : Constant
  16. Frame rate                               : 23.976 (24000/1001) fps
  17. Color space                              : YUV
  18. Chroma subsampling                       : 4:2:0
  19. Bit depth                                : 8 bits #32342
  20. Scan type                                : Progressive
  21. Bits/(Pixel*Frame)                       : 0.182
  22. Stream size                              : 6.65 GiB (84%)
  23. Writing library                          : x264 core 84 r1416 fcf70c2
  24. Encoding settings                        : cabac=1 / ref=4 / deblock=1:-1:-1 / analyse=0x3:0x113 / me=umh / subme=7 / psy=1 / psy_rd=1.0:0.0 / mixed_ref=1 / me_range=16 / chroma_me=1 / trellis=2 / 8x8dct=1 / cqm=0 / deadzone=21,11 / fast_pskip=1 / chroma_qp_offset=-2 / threads=6 / sliced_threads=0 / nr=0 / decimate=1 / mbaff=0 / constrained_intra=0 / bframes=3 / b_pyramid=0 / b_adapt=2 / b_bias=0 / direct=3 / wpredb=1 / wpredp=2 / keyint=250 / keyint_min=25 / scenecut=40 / intra_refresh=0 / rc_lookahead=40 / rc=2pass / mbtree=1 / bitrate=9045 / ratetol=1.0 / qcomp=0.60 / qpmin=10 / qpmax=51 / qpstep=4 / cplxblur=20.0 / qblur=0.5 / vbv_maxrate=50000 / vbv_bufsize=50000 / ip_ratio=1.40 / aq=1:1.00
  25. Language                                 : English
  26. Default                                  : Yes
  27. Forced                                   : Yes

  28. Audio
  29. ID                                       : 2
  30. Format                                   : DTS
  31. Format/Info                              : Digital Theater Systems
  32. Mode                                     : 16
  33. Format settings, Endianness              : Big
  34. Codec IM                                 : I5QAYOL9X6A8XZ
  35. Codec ID                                 : A_DTS
  36. Duration                                 : 1h 47mn
  37. Bit rate mode                            : Constant
  38. Bit rate                                 : 1 509 Kbps
  39. Channel(s)                               : 6 channels
  40. Channel positions                        : Front: L C R, Side: L R, LFE
  41. Sampling rate                            : 48.0 KHz
  42. Frame rate                               : 93.750 fps (512 spf)
  43. Bit depth                                : 16 bits
  44. Compression mode                         : Lossy
  45. Stream size                              : 1.14 GiB (14%)
  46. Language                                 : English
  47. Default                                  : Yes
  48. Forced                                   : Yes
复制代码

现金/现金对决 Cash.2010.1080p.BluRay.x264-LCHD 7.94GB-2.png 现金/现金对决 Cash.2010.1080p.BluRay.x264-LCHD 7.94GB-3.png 现金/现金对决 Cash.2010.1080p.BluRay.x264-LCHD 7.94GB-4.png 现金/现金对决 Cash.2010.1080p.BluRay.x264-LCHD 7.94GB-5.png 现金/现金对决 Cash.2010.1080p.BluRay.x264-LCHD 7.94GB-6.png 现金/现金对决 Cash.2010.1080p.BluRay.x264-LCHD 7.94GB-7.png






回复

使用道具 举报

蓝光币
17
发表于 2018-7-11 10:57:40 | 显示全部楼层
感谢发布好电影
回复 支持 反对

使用道具 举报

蓝光币
196
发表于 2018-7-12 12:03:26 | 显示全部楼层
感谢分享。
回复

使用道具 举报

懒得打字嘛,点击右侧快捷回复 【右侧内容,后台自定义】
您需要登录后才可以回帖 登录 | 立即加入

本版积分规则

Archiver|小黑屋| 蓝光电影网 |网站地图

Copyright © 2021 Comsenz Inc. Powered by 蓝光电影网

蓝光电影网

本站内容由用户自主分享和转载自互联网,转载目的在于传递更多信息,并不代表本网赞同其观点和对其真实性负责。

如有侵权、违反国家法律政策行为,请联系我们,我们会第一时间及时清除和处理!

举报反馈邮箱:[email protected]

快速回复 返回顶部 返回列表