找回密码

蓝光电影网

查看: 1363|回复: 2

[剧情] 蓝色天使 Submission.2017.1080p.BluRay.x264-PSYCHD 7.68GB

[复制链接]
蓝光币
730
发表于 2018-7-11 10:00:56 | 显示全部楼层 |阅读模式
蓝色天使 Submission.2017.1080p.BluRay.x264-PSYCHD 7.68GB-1.jpg
◎译  名 蓝色天使
◎片  名 Submission
◎年  代 2017
◎产  地 美国
◎类  别 剧情
◎语  言 英语
◎上映日期 2017-10-13(伍德斯托克电影节)/2018-03-09(美国部分上映)
◎IMDb评分  5.5/10 from 216 users
◎IMDb链接  https://www.imdb.com/title/tt2707810/
◎豆瓣评分 /10 from 0 users
◎豆瓣链接 https://movie.douban.com/subject/26699822/
◎片  长 106分钟
◎导  演 Richard Levine
◎主  演 斯坦利·图齐 Stanley Tucci
      爱迪生·蒂姆林 Addison Timlin
      凯拉·塞吉维克 Kyra Sedgwick
      詹尼安·吉劳法罗 Janeane Garofalo
      里特奇·科斯特 Ritchie Coster
      Colby Minifie
      Alison Bartlett
      亨利·斯特拉姆 Henry Stram

◎简  介

  A cynical college professor takes a keen interest in a talented young writing student.

  1. Video
  2. ID                                       : 1
  3. Format                                   : AVC
  4. Format/Info                              : Advanced Video Codec
  5. Format profile                           : [email][email protected][/email]
  6. Format settings                          : CABAC / 5 Ref Frames
  7. Format settings, CABAC                   : Yes
  8. Format settings, RefFrames               : 5 frames
  9. Codec IM                                 : I5QAYOL9X6A8XZ
  10. Codec ID                                 : V_MPEG4/ISO/AVC
  11. Duration                                 : 1 h 46 min
  12. Bit rate                                 : 8 785 kb/s
  13. Width                                    : 1 920 pixels
  14. Height                                   : 808 pixels
  15. Display aspect ratio                     : 2.40:1
  16. Frame rate mode                          : Constant
  17. Frame rate                               : 23.976 (24000/1001) FPS
  18. Color space                              : YUV
  19. Chroma subsampling                       : 4:2:0
  20. Bit depth                                : 8 bits #32342
  21. Scan type                                : Progressive
  22. Bits/(Pixel*Frame)                       : 0.236
  23. Stream size                              : 6.37 GiB (83%)
  24. Writing library                          : x264 core 155 r2901 7d0ff22
  25. Encoding settings                        : cabac=1 / ref=5 / deblock=1:-3:-3 / analyse=0x3:0x113 / me=umh / subme=8 / psy=1 / psy_rd=1.00:0.00 / mixed_ref=1 / me_range=32 / chroma_me=1 / trellis=2 / 8x8dct=1 / cqm=0 / deadzone=21,11 / fast_pskip=1 / chroma_qp_offset=-2 / threads=24 / lookahead_threads=4 / sliced_threads=0 / nr=0 / decimate=1 / interlaced=0 / bluray_compat=0 / constrained_intra=0 / bframes=3 / b_pyramid=2 / b_adapt=2 / b_bias=0 / direct=3 / weightb=1 / open_gop=0 / weightp=2 / keyint=240 / keyint_min=24 / scenecut=40 / intra_refresh=0 / rc_lookahead=50 / rc=2pass / mbtree=1 / bitrate=8785 / ratetol=1.0 / qcomp=0.60 / qpmin=0 / qpmax=69 / qpstep=4 / cplxblur=20.0 / qblur=0.5 / ip_ratio=1.40 / aq=3:0.80
  26. Default                                  : Yes
  27. Forced                                   : No
  28. Statistics Tags Issue                    : no_variable_data 1970-01-01 00:00:00 / no_variable_data 2010-02-22 21:41:29
  29. FromStats_BitRate                        : 8779252
  30. FromStats_Duration                       : 01:46:24.295000000
  31. FromStats_FrameCount                     : 153070
  32. FromStats_StreamSize                     : 7006167072

  33. Audio
  34. ID                                       : 2
  35. Format                                   : DTS
  36. Format/Info                              : Digital Theater Systems
  37. Mode                                     : 16
  38. Format settings, Endianness              : Big
  39. Codec IM                                 : I5QAYOL9X6A8XZ
  40. Codec ID                                 : A_DTS
  41. Duration                                 : 1 h 46 min
  42. Bit rate mode                            : Constant
  43. Bit rate                                 : 1 509 kb/s
  44. Channel(s)                               : 6 channels
  45. Channel positions                        : Front: L C R, Side: L R, LFE
  46. Sampling rate                            : 48.0 kHz
  47. Frame rate                               : 93.750 FPS (512 SPF)
  48. Bit depth                                : 24 bits
  49. Compression mode                         : Lossy
  50. Stream size                              : 1.12 GiB (15%)
  51. Language                                 : English
  52. Default                                  : Yes
  53. Forced                                   : No
  54. Statistics Tags Issue                    : no_variable_data 1970-01-01 00:00:00 / no_variable_data 2010-02-22 21:41:29
  55. FromStats_BitRate                        : 1508999
  56. FromStats_Duration                       : 01:46:24.299000000
  57. FromStats_FrameCount                     : 598528
  58. FromStats_StreamSize                     : 1204238336

  59. Text #1
  60. ID                                       : 3
  61. Format                                   : UTF-8
  62. Codec IM                                 : I5QAYOL9X6A8XZ
  63. Codec ID                                 : S_TEXT/UTF8
  64. Codec IM                                 : I5QAYOL9X6A8XZ
  65. Codec ID/Info                            : UTF-8 Plain Text
  66. Language                                 : English
  67. Default                                  : No
  68. Forced                                   : No
  69. Statistics Tags Issue                    : no_variable_data 1970-01-01 00:00:00 / no_variable_data 2010-02-22 21:41:29
  70. FromStats_BitRate                        : 81
  71. FromStats_Duration                       : 01:45:33.410000000
  72. FromStats_FrameCount                     : 1767
  73. FromStats_StreamSize                     : 64350

  74. Text #2
  75. ID                                       : 4
  76. Format                                   : UTF-8
  77. Codec IM                                 : I5QAYOL9X6A8XZ
  78. Codec ID                                 : S_TEXT/UTF8
  79. Codec IM                                 : I5QAYOL9X6A8XZ
  80. Codec ID/Info                            : UTF-8 Plain Text
  81. Title                                    : SDH
  82. Language                                 : English
  83. Default                                  : No
  84. Forced                                   : No
  85. Statistics Tags Issue                    : no_variable_data 1970-01-01 00:00:00 / no_variable_data 2010-02-22 21:41:29
  86. FromStats_BitRate                        : 84
  87. FromStats_Duration                       : 01:45:33.410000000
  88. FromStats_FrameCount                     : 1856
  89. FromStats_StreamSize                     : 66722

  90. Menu
  91. 00:00:00.000                             : en:00:00:00.000
  92. 00:07:11.765                             : en:00:07:11.765
  93. 00:13:45.283                             : en:00:13:45.283
  94. 00:23:23.986                             : en:00:23:23.986
  95. 00:30:48.013                             : en:00:30:48.013
  96. 00:41:41.207                             : en:00:41:41.207
  97. 00:53:24.576                             : en:00:53:24.576
  98. 01:07:18.117                             : en:01:07:18.117
  99. 01:15:43.164                             : en:01:15:43.164
  100. 01:20:38.375                             : en:01:20:38.375
  101. 01:26:36.400                             : en:01:26:36.400
  102. 01:40:10.213                             : en:01:40:10.213
复制代码

蓝色天使 Submission.2017.1080p.BluRay.x264-PSYCHD 7.68GB-2.jpg

  






回复

使用道具 举报

蓝光币
17
发表于 2018-7-11 10:53:48 | 显示全部楼层
感谢发布好电影
回复 支持 反对

使用道具 举报

蓝光币
1240
发表于 2018-7-11 11:19:58 | 显示全部楼层
感谢楼主分享了好的资源
回复 支持 反对

使用道具 举报

懒得打字嘛,点击右侧快捷回复 【右侧内容,后台自定义】
您需要登录后才可以回帖 登录 | 立即加入

本版积分规则

Archiver|小黑屋| 蓝光电影网 |网站地图

Copyright © 2021 Comsenz Inc. Powered by 蓝光电影网

蓝光电影网

本站内容由用户自主分享和转载自互联网,转载目的在于传递更多信息,并不代表本网赞同其观点和对其真实性负责。

如有侵权、违反国家法律政策行为,请联系我们,我们会第一时间及时清除和处理!

举报反馈邮箱:[email protected]

快速回复 返回顶部 返回列表