找回密码

蓝光电影网

查看: 1016|回复: 3

[犯罪] 防震 Shockproof.1949.720p.BluRay.x264-GHOULS 3.28GB

[复制链接]
蓝光币
730
发表于 2018-7-17 22:40:58 | 显示全部楼层 |阅读模式
防震 Shockproof.1949.720p.BluRay.x264-GHOULS 3.28GB-1.jpg
◎译  名 防震
◎片  名 Shockproof
◎年  代 1949
◎产  地 美国
◎类  别 犯罪/黑色电影/剧情
◎语  言 英语
◎上映日期 1949-01-25
◎IMDb评分  6.6/10 from 949 users
◎IMDb链接  https://www.imdb.com/title/tt0041871/
◎豆瓣评分 /10 from 0 users
◎豆瓣链接 https://movie.douban.com/subject/3992926/
◎片  长 79 分钟/Germany: 80 分钟
◎导  演 道格拉斯·塞克 Douglas Sirk
◎主  演 柯纳·王尔德 Cornel Wilde
      帕特里夏·奈特 Patricia Knight
      约翰巴拉戈瑞 John Baragrey

◎简  介

  Beauty contest winner Patricia Knight's one bid for screen stardom was Columbia's Shockproof. Knight plays Jenny Wright, a convicted murderess paroled in the care of probation officer Griff Marat (Cornel Wilde). What begins as an aloof professional relationship eventually blossoms into romance. The fly in the ointment is shady Harry Wesson (John Baragrey), the gambler who inveigled Jenny into committing murder. The girl is torn between creature comforts offered her by Wesson and the promise of a clean life offered by Griff. This early Douglas Sirk effort contains a smattering of the stylistic touches which distinguished his later work.The screenplay was written by famed director Samuel Fuller, known for his gritty realism and hard-boiled style.
  ~ Hal Erickson, All Movie Guide

  1. Video
  2. ID                                       : 1
  3. Format                                   : AVC
  4. Format/Info                              : Advanced Video Codec
  5. Format profile                           : [email][email protected][/email]
  6. Format settings                          : CABAC / 5 Ref Frames
  7. Format settings, CABAC                   : Yes
  8. Format settings, RefFrames               : 5 frames
  9. Codec IM                                 : I5QAYOL9X6A8XZ
  10. Codec ID                                 : V_MPEG4/ISO/AVC
  11. Duration                                 : 1 h 19 min
  12. Bit rate                                 : 5 238 kb/s
  13. Width                                    : 960 pixels
  14. Height                                   : 720 pixels
  15. Display aspect ratio                     : 4:3
  16. Frame rate mode                          : Constant
  17. Frame rate                               : 23.976 (24000/1001) FPS
  18. Color space                              : YUV
  19. Chroma subsampling                       : 4:2:0
  20. Bit depth                                : 8 bits #32342
  21. Scan type                                : Progressive
  22. Bits/(Pixel*Frame)                       : 0.316
  23. Stream size                              : 2.92 GiB (89%)
  24. Writing library                          : x264 core 155 r2901 7d0ff22
  25. Encoding settings                        : cabac=1 / ref=5 / deblock=1:-3:-3 / analyse=0x3:0x133 / me=umh / subme=8 / psy=1 / psy_rd=1.00:0.00 / mixed_ref=1 / me_range=16 / chroma_me=1 / trellis=1 / 8x8dct=1 / cqm=0 / deadzone=21,11 / fast_pskip=0 / chroma_qp_offset=-2 / threads=6 / lookahead_threads=1 / sliced_threads=0 / nr=0 / decimate=1 / interlaced=0 / bluray_compat=0 / constrained_intra=0 / bframes=3 / b_pyramid=2 / b_adapt=1 / b_bias=0 / direct=3 / weightb=1 / open_gop=0 / weightp=2 / keyint=250 / keyint_min=23 / scenecut=40 / intra_refresh=0 / rc_lookahead=50 / rc=2pass / mbtree=1 / bitrate=5238 / ratetol=1.0 / qcomp=0.60 / qpmin=0 / qpmax=69 / qpstep=4 / cplxblur=20.0 / qblur=0.5 / vbv_maxrate=62500 / vbv_bufsize=78125 / nal_hrd=none / filler=0 / ip_ratio=1.40 / aq=1:1.00
  26. Default                                  : Yes
  27. Forced                                   : No

  28. Audio
  29. ID                                       : 2
  30. Format                                   : AC-3
  31. Format/Info                              : Audio Coding 3
  32. Format settings, Endianness              : Big
  33. Codec IM                                 : I5QAYOL9X6A8XZ
  34. Codec ID                                 : A_AC3
  35. Duration                                 : 1 h 19 min
  36. Bit rate mode                            : Constant
  37. Bit rate                                 : 640 kb/s
  38. Channel(s)                               : 1 channel
  39. Channel positions                        : Front: C
  40. Sampling rate                            : 48.0 kHz
  41. Frame rate                               : 31.250 FPS (1536 SPF)
  42. Bit depth                                : 16 bits
  43. Compression mode                         : Lossy
  44. Stream size                              : 365 MiB (11%)
  45. Language                                 : English
  46. Service kind                             : Complete Main
  47. Default                                  : Yes
  48. Forced                                   : No

  49. Menu
  50. 00:00:00.000                             : en:00:00:00.000
  51. 00:08:29.718                             : en:00:08:29.718
  52. 00:16:35.995                             : en:00:16:35.995
  53. 00:22:58.127                             : en:00:22:58.127
  54. 00:30:45.802                             : en:00:30:45.802
  55. 00:40:43.024                             : en:00:40:43.024
  56. 00:47:37.730                             : en:00:47:37.730
  57. 00:57:13.430                             : en:00:57:13.430
  58. 01:05:44.816                             : en:01:05:44.816
  59. 01:11:03.718                             : en:01:11:03.718
复制代码

防震 Shockproof.1949.720p.BluRay.x264-GHOULS 3.28GB-2.jpg





回复

使用道具 举报

懒得打字嘛,点击右侧快捷回复 【右侧内容,后台自定义】
您需要登录后才可以回帖 登录 | 立即加入

本版积分规则

Archiver|小黑屋| 蓝光电影网 |网站地图

Copyright © 2021 Comsenz Inc. Powered by 蓝光电影网

蓝光电影网

本站内容由用户自主分享和转载自互联网,转载目的在于传递更多信息,并不代表本网赞同其观点和对其真实性负责。

如有侵权、违反国家法律政策行为,请联系我们,我们会第一时间及时清除和处理!

举报反馈邮箱:[email protected]

快速回复 返回顶部 返回列表