找回密码

蓝光电影网

查看: 1056|回复: 5

[剧情] 新城杀手 New.Town.Killers.2008.1080p.Bluray.x264-hV 7.94GB

[复制链接]
蓝光币
730
发表于 2018-7-19 19:31:17 | 显示全部楼层 |阅读模式
新城杀手 New.Town.Killers.2008.1080p.Bluray.x264-hV 7.94GB-1.jpg
◎译  名 新城杀手
◎片  名 New Town Killers
◎年  代 2008
◎产  地 英国
◎类  别 剧情
◎语  言 英语
◎上映日期 2008-10-28
◎IMDb评分  5.7/10 from 1,614 users
◎IMDb链接  https://www.imdb.com/title/tt1183908/
◎豆瓣评分 5.6/10 from 152 users
◎豆瓣链接 https://movie.douban.com/subject/3073137/
◎片  长 100 分钟/Germany: 97 分钟(European Film Market)
◎导  演 Richard Jobson
◎主  演 Dougray Scott
      Alastair Mackenzie
      James Anthony Pearson

◎简  介

  两个私人银里手Alistair和Jamie,他们玩弄天下,喜好和处于社会边沿的穷户玩一种12小时的幸存者游戏。他们的下一个方针是Sean Macdonald,一个无父无母的少年,他和姐姐住在爱丁堡的郊区。她欠债累累,他前途堪忧。Sean为了钱赞成了玩这个游戏。很快他意想到自己堕入了天堂般的12小时......

  1. Video
  2. ID                                       : 1
  3. Format                                   : AVC
  4. Format/Info                              : Advanced Video Codec
  5. Format profile                           : [email][email protected][/email]
  6. Format settings                          : CABAC / 4 Ref Frames
  7. Format settings, CABAC                   : Yes
  8. Format settings, ReFrames                : 4 frames
  9. Codec IM                                 : I5QAYOL9X6A8XZ
  10. Codec ID                                 : V_MPEG4/ISO/AVC
  11. Duration                                 : 1 h 40 min
  12. Bit rate                                 : 10.7 Mb/s
  13. Width                                    : 1 920 pixels
  14. Height                                   : 1 080 pixels
  15. Display aspect ratio                     : 16:9
  16. Frame rate mode                          : Constant
  17. Frame rate                               : 24.000 FPS
  18. Color space                              : YUV
  19. Chroma subsampling                       : 4:2:0
  20. Bit depth                                : 8 bits #32342
  21. Scan type                                : Progressive
  22. Bits/(Pixel*Frame)                       : 0.215
  23. Stream size                              : 7.34 GiB (92%)
  24. Writing library                          : x264 core 72 r1217 5e9ae4c
  25. Encoding settings                        : cabac=1 / ref=4 / deblock=1:0:0 / analyse=0x3:0x133 / me=umh / subme=7 / psy=1 / psy_rd=1.0:0.0 / mixed_ref=1 / me_range=16 / chroma_me=1 / trellis=1 / 8x8dct=1 / cqm=0 / deadzone=21,11 / chroma_qp_offset=-2 / threads=12 / nr=0 / decimate=1 / mbaff=0 / bframes=3 / b_pyramid=1 / b_adapt=1 / b_bias=0 / direct=1 / wpredb=1 / keyint=250 / keyint_min=25 / scenecut=40 / rc=2pass / mbtree=0 / bitrate=10699 / ratetol=1.0 / qcomp=0.60 / qpmin=10 / qpmax=51 / qpstep=4 / cplxblur=20.0 / qblur=0.5 / ip_ratio=1.40 / pb_ratio=1.30 / aq=1:1.00
  26. Language                                 : English
  27. Default                                  : Yes
  28. Forced                                   : No

  29. Audio
  30. ID                                       : 2
  31. Format                                   : AC-3
  32. Format/Info                              : Audio Coding 3
  33. Codec IM                                 : I5QAYOL9X6A8XZ
  34. Codec ID                                 : A_AC3
  35. Duration                                 : 1 h 40 min
  36. Bit rate mode                            : Constant
  37. Bit rate                                 : 640 kb/s
  38. Channel(s)                               : 6 channels
  39. Channel positions                        : Front: L C R, Side: L R, LFE
  40. Sampling rate                            : 48.0 kHz
  41. Frame rate                               : 31.250 FPS (1536 SPF)
  42. Bit depth                                : 16 bits
  43. Compression mode                         : Lossy
  44. Stream size                              : 459 MiB (6%)
  45. Service kind                             : Complete Main
  46. Default                                  : Yes
  47. Forced                                   : No
复制代码

新城杀手 New.Town.Killers.2008.1080p.Bluray.x264-hV 7.94GB-2.png 新城杀手 New.Town.Killers.2008.1080p.Bluray.x264-hV 7.94GB-3.png 新城杀手 New.Town.Killers.2008.1080p.Bluray.x264-hV 7.94GB-4.png

  




回复

使用道具 举报

蓝光币
17
发表于 2018-7-21 15:07:24 | 显示全部楼层
感谢发布好电影
回复 支持 反对

使用道具 举报

懒得打字嘛,点击右侧快捷回复 【右侧内容,后台自定义】
您需要登录后才可以回帖 登录 | 立即加入

本版积分规则

Archiver|小黑屋| 蓝光电影网 |网站地图

Copyright © 2021 Comsenz Inc. Powered by 蓝光电影网

蓝光电影网

本站内容由用户自主分享和转载自互联网,转载目的在于传递更多信息,并不代表本网赞同其观点和对其真实性负责。

如有侵权、违反国家法律政策行为,请联系我们,我们会第一时间及时清除和处理!

举报反馈邮箱:[email protected]

快速回复 返回顶部 返回列表