找回密码

蓝光电影网

查看: 693|回复: 10

[喜剧] 海盗电台/出位乐人谷/海盗电波 Pirate.Radio.2009.1080p.BluRay.x264.DTS-FGT 10.13GB

[复制链接]
蓝光币
386
发表于 2020-1-19 17:36:16 | 显示全部楼层 |阅读模式
? 海盗电台/出位乐人谷/海盗电波 Pirate.Radio.2009.1080p.BluRay.x264.DTS-FGT 10.13GB-1.jpg
◎译  名 海盗电台/出位乐人谷(港)/海盗电波
◎片  名 The Boat That Rocked
◎年  代 2009
◎国  家 英国/德国/法国/法国
◎类  别 剧情/笑剧/音乐
◎语  言 英语
◎上映日期 2009-04-01
◎IMDb评分7.4/10 from 86,045 users
◎IMDb链接http://www.imdb.com/title/tt1131729/
◎豆瓣评分 8.7/10 from 141,075 users
◎豆瓣链接 http://movie.douban.com/subject/3007773/
◎片  长 116 分钟/135 分钟(未删减版)
◎导  演 理查德·柯蒂斯 Richard Curtis
◎主  演 比尔·奈伊 Bill Nighy
      肯尼思·布拉纳 Kenneth Branagh
      菲利普·塞默·霍夫曼 Philip Seymour Hoffman
      尼克·弗罗斯特 Nick Frost
      汤姆·斯图里奇 Tom Sturridge
      瑞斯·伊凡斯 Rhys Ifans
      瑞斯·达比 Rhys Darby
      克里斯·奥多德 Chris O Dowd
      妲露拉·莱莉 Talulah Riley
      凯瑟琳·帕金森 Katherine Parkinson
      杰克·达文波特 Jack Davenport
◎简  介
  1966年英国,北海上飘零着一条游艇,这里有一群布满了摇滚胡想的年轻人,在24小时不中断播着自己爱好的音乐,他们叫做海盗电台。全英国的年轻人,不管种族、信仰,都热衷于海盗电台的音乐。被黉舍解雇的卡尔(汤姆?斯图里奇 Tom Sturridge 饰)被海盗电台的首领昆汀(比尔?奈伊 Bill Nighy 饰)举荐入伙。经过游戏,他慢慢熟悉这些豪情四射的DJ,其中,头牌DJ大胡子科特(菲利普?塞默?霍夫曼 Philip Seymour Hoffman 饰)是个擅长拿音乐说事的美国佬;戴夫虽然脑满肠肥却颇讨女孩爱好……羞涩的卡尔似乎总是难以融入,对于爱好的女孩也手足无措。2年前分隔的DJ加文(瑞斯?伊凡斯 Rhys Ifans 饰)忽然回归让科特面临危机,而西蒙则发现与妻子艾兰诺的婚姻还有隐情。与此同时,政府高官与国家电台却起头留意到这些无政府主义的小团伙,并屡次召开垂危会议商议对策,从最初的封口令,到后来的军队驱逐,匹敌愈演愈烈……

  1. Video
  2. ID : 1
  3. Format : AVC
  4. Format/Info : Advanced Video Codec
  5. Format profile : [email protected]
  6. Format settings, CABAC : Yes
  7. Format settings, ReFrames : 5 frames
  8. Codec ID : V_MPEG4/ISO/AVC
  9. Duration : 2h 15mn
  10. Bit rate : 9 214 Kbps
  11. Width : 1 920 pixels
  12. Height : 816 pixels
  13. Display aspect ratio : 2.35:1
  14. Frame rate mode : Constant
  15. Frame rate : 23.976 fps
  16. Color space : YUV
  17. Chroma subsampling : 4:2:0
  18. Bit depth : 8 bits
  19. Scan type : Progressive
  20. Bits/(Pixel*Frame) : 0.245
  21. Stream size : 8.50 GiB (84%)
  22. Writing library : x264 core 67 r1169M ab85c9b
  23. Encoding settings : cabac=1 / ref=5 / deblock=1:0:0 / analyse=0x3:0x133 / me=umh / subme=7 / psy_rd=1.0:0.0 / mixed_ref=1 / me_range=16 / chroma_me=1 / trellis=1 / 8x8dct=1 / cqm=0 / deadzone=21,11 / chroma_qp_offset=-2 / threads=6 / nr=0 / decimate=1 / mbaff=0 / bframes=3 / b_pyramid=1 / b_adapt=1 / b_bias=0 / direct=1 / wpredb=1 / keyint=250 / keyint_min=25 / scenecut=40 / rc=2pass / bitrate=9214 / ratetol=1.0 / qcomp=0.60 / qpmin=10 / qpmax=51 / qpstep=4 / cplxblur=20.0 / qblur=0.5 / ip_ratio=1.40 / pb_ratio=1.30 / aq=1:1.00
  24. Language : English
  25. Default : Yes
  26. Forced : No
  27. Audio
  28. ID : 2
  29. Format : DTS
  30. Format/Info : Digital Theater Systems
  31. Mode : 16
  32. Format settings, Endianness : Big
  33. Codec ID : A_DTS
  34. Duration : 2h 15mn
  35. Bit rate mode : Constant
  36. Bit rate : 1 509 Kbps
  37. Channel(s) : 6 channels
  38. Channel positions : Front: L C R, Side: L R, LFE
  39. Sampling rate : 48.0 KHz
  40. Bit depth : 24 bits
  41. Compression mode : Lossy
  42. Stream size : 1.42 GiB (14%)
  43. Language : English
  44. Default : Yes
  45. Forced : No
  46. Text
  47. ID : 3
  48. Format : UTF-8
  49. Codec ID : S_TEXT/UTF8
  50. Codec ID/Info : UTF-8 Plain Text
  51. Language : English
  52. Default : Yes
  53. Forced : No
复制代码

海盗电台/出位乐人谷/海盗电波 Pirate.Radio.2009.1080p.BluRay.x264.DTS-FGT 10.13GB-2.jpg 海盗电台/出位乐人谷/海盗电波 Pirate.Radio.2009.1080p.BluRay.x264.DTS-FGT 10.13GB-3.jpg
海盗电台/出位乐人谷/海盗电波 Pirate.Radio.2009.1080p.BluRay.x264.DTS-FGT 10.13GB-4.jpg 海盗电台/出位乐人谷/海盗电波 Pirate.Radio.2009.1080p.BluRay.x264.DTS-FGT 10.13GB-5.jpg
海盗电台/出位乐人谷/海盗电波 Pirate.Radio.2009.1080p.BluRay.x264.DTS-FGT 10.13GB-6.jpg 海盗电台/出位乐人谷/海盗电波 Pirate.Radio.2009.1080p.BluRay.x264.DTS-FGT 10.13GB-7.jpg                           

                                                



回复

使用道具 举报

懒得打字嘛,点击右侧快捷回复 【右侧内容,后台自定义】
您需要登录后才可以回帖 登录 | 立即加入

本版积分规则

Archiver|小黑屋| 蓝光电影网 |网站地图

Copyright © 2021 Comsenz Inc. Powered by 蓝光电影网

蓝光电影网

本站内容由用户自主分享和转载自互联网,转载目的在于传递更多信息,并不代表本网赞同其观点和对其真实性负责。

如有侵权、违反国家法律政策行为,请联系我们,我们会第一时间及时清除和处理!

举报反馈邮箱:[email protected]

快速回复 返回顶部 返回列表