找回密码

蓝光电影网

查看: 2691|回复: 2

[科幻] 终结者:黑暗命运 Terminator.Dark.Fate.2019.1080p.BluRay.REMUX.AVC.DTS-HD.MA.TrueHD.7.1.Atmos-FGT 35.86GB

[复制链接]
蓝光币
426
发表于 2020-1-20 00:01:22 | 显示全部楼层 |阅读模式
终结者:黑暗命运 Terminator.Dark.Fate.2019.1080p.BluRay.REMUX.AVC.DTS-HD.MA.TrueHD.7.1.Atmos-FGT 35.86GB-1.png

译  名 终结者:黑暗命运 / Terminator 6 / 未来战士:黑暗命运(港) / 终结者2019 / 终结者6 / 终结者6:黑暗命运 / 终结者6:黑暗宿命 / 魔鬼终结者:黑暗宿命(台)
片  名 Terminator: Dark Fate
年  代 2019
产  地 美国 / 中国大陆
类  别 行动 / 科幻 / 冒险
语  言 英语
上映日期 2019-10-23(法国) / 2019-11-01(美国/中国大陆)
IMDb评分  6.4/10 from 60728 users
IMDb链接  https://www.imdb.com/title/tt6450804
豆瓣评分 7.1/10 from 86363 users
豆瓣链接 https://movie.douban.com/subject/27109633/
片  长 128分钟
导  演 蒂姆·米勒 Tim Miller
编  剧 詹姆斯·卡梅隆 James Cameron / 查尔斯·H·伊格里 Charles H. Eglee / 乔什·弗莱德曼 Josh Friedman / 大卫·S·高耶 David S. Goyer / 贾斯汀·罗德斯 Justin Rhodes / 比利·雷 Billy Ray / 盖尔·安妮·赫德 Gale Anne Hurd
主  演 麦肯兹·戴维斯 Mackenzie Davis
       娜塔利娅·雷耶斯 Natalia Reyes
       琳达·汉密尔顿 Linda Hamilton
       阿诺·施瓦辛格 Arnold Schwarzenegger
       加布里埃尔·鲁纳 Gabriel Luna
       迪耶戈·博内塔 Diego Boneta
       恩里克·阿尔切 Enrique Arce
       特里斯坦·乌罗阿 Tristán Ulloa
       艾丽西娅·博拉切罗 Alicia Borrachero
       布雷特·阿扎尔 Brett Azar
       史蒂芬·克里 Steven Cree
       罗谢尔·尼尔 Rochelle Neil
       弗雷泽·杰姆斯 Fraser James
       克劳迪娅·特鲁希略 Claudia Trujillo
       比约恩·弗赖贝格 Bj?rn Freiberg
       约翰·盖蒂尔 John Gettier
       彼得·奥蒙德 Peter Ormond
       Lorna Brown
       Peter Schueller


标  签 科幻 | 行动 | 美国 | 机械人 | 2019 | 情怀 | 冒险 | 剧情

简  介  

  《终结者2:审判日》发生的27年后,由于未来天网派来T-800成功杀死年幼的约翰,以致令未来发生变化,一个全新进化的液态金属终结者从未来派出,目标是追杀持有关键讯息的丹妮·拉莫斯、半生化人葛蕾丝和她的朋友。这使莎拉·康纳以及成功杀死约翰的T800终结者前来帮助她们一行人,以配合为了人类的未来而战。

获奖情况  

  第6届豆瓣电影年度榜单(2019)
  评分最高的科幻/行动片(提名)
  1. Video
  2. ID                                       : 1
  3. Format                                   : AVC
  4. Format/Info                              : Advanced Video Codec
  5. Format profile                           : [email protected]
  6. Format settings                          : CABAC / 4 Ref Frames
  7. Format settings, CABAC                   : Yes
  8. Format settings, Reference frames        : 4 frames
  9. Codec ID                                 : V_MPEG4/ISO/AVC
  10. Duration                                 : 2 h 8 min
  11. Bit rate mode                            : Variable
  12. Bit rate                                 : 28.7 Mb/s
  13. Maximum bit rate                         : 33.3 Mb/s
  14. Width                                    : 1 920 pixels
  15. Height                                   : 1 080 pixels
  16. Display aspect ratio                     : 16:9
  17. Frame rate mode                          : Constant
  18. Frame rate                               : 23.976 (24000/1001) FPS
  19. Color space                              : YUV
  20. Chroma subsampling                       : 4:2:0
  21. Bit depth                                : 8 bits
  22. Scan type                                : Progressive
  23. Bits/(Pixel*Frame)                       : 0.578
  24. Stream size                              : 25.7 GiB (72%)
  25. Title                                    : Terminator.Dark.Fate.2019.1080p.BluRay.REMUX.AVC.DTS-HD.MA.TrueHD.7.1.Atmos-FGT
  26. Language                                 : English
  27. Default                                  : No
  28. Forced                                   : No

  29. Audio #1
  30. ID                                       : 2
  31. Format                                   : MLP FBA 16-ch
  32. Format/Info                              : Meridian Lossless Packing FBA with 16-channel presentation
  33. Commercial name                          : Dolby TrueHD with Dolby Atmos
  34. Codec ID                                 : A_TRUEHD
  35. Duration                                 : 2 h 8 min
  36. Bit rate mode                            : Variable
  37. Bit rate                                 : 4 634 kb/s
  38. Maximum bit rate                         : 8 247 kb/s
  39. Channel(s)                               : 8 channels
  40. Channel layout                           : L R C LFE Ls Rs Lb Rb
  41. Sampling rate                            : 48.0 kHz
  42. Frame rate                               : 1 200.000 FPS (40 SPF)
  43. Compression mode                         : Lossless
  44. Stream size                              : 4.15 GiB (12%)
  45. Title                                    : Terminator.Dark.Fate.2019.1080p.BluRay.REMUX.AVC.DTS-HD.MA.TrueHD.7.1.Atmos-FGT
  46. Language                                 : English
  47. Default                                  : Yes
  48. Forced                                   : No
  49. Number of dynamic objects                : 11
  50. Bed channel count                        : 1 channel
  51. Bed channel configuration                : LFE

  52. Audio #2
  53. ID                                       : 3
  54. Format                                   : DTS XLL
  55. Format/Info                              : Digital Theater Systems
  56. Commercial name                          : DTS-HD Master Audio
  57. Codec ID                                 : A_DTS
  58. Duration                                 : 2 h 8 min
  59. Bit rate mode                            : Variable
  60. Bit rate                                 : 4 060 kb/s
  61. Channel(s)                               : 8 channels
  62. Channel layout                           : C L R LFE Lb Rb Lss Rss
  63. Sampling rate                            : 48.0 kHz
  64. Frame rate                               : 93.750 FPS (512 SPF)
  65. Bit depth                                : 24 bits
  66. Compression mode                         : Lossless
  67. Stream size                              : 3.63 GiB (10%)
  68. Title                                    : Terminator.Dark.Fate.2019.1080p.BluRay.REMUX.AVC.DTS-HD.MA.TrueHD.7.1.Atmos-FGT
  69. Language                                 : English
  70. Default                                  : No
  71. Forced                                   : No

  72. Audio #3
  73. ID                                       : 4
  74. Format                                   : AC-3
  75. Format/Info                              : Audio Coding 3
  76. Commercial name                          : Dolby Digital
  77. Codec ID                                 : A_AC3
  78. Duration                                 : 2 h 8 min
  79. Bit rate mode                            : Constant
  80. Bit rate                                 : 640 kb/s
  81. Channel(s)                               : 6 channels
  82. Channel layout                           : L R C LFE Ls Rs
  83. Sampling rate                            : 48.0 kHz
  84. Frame rate                               : 31.250 FPS (1536 SPF)
  85. Bit depth                                : 16 bits
  86. Compression mode                         : Lossy
  87. Stream size                              : 586 MiB (2%)
  88. Title                                    : Terminator.Dark.Fate.2019.1080p.BluRay.REMUX.AVC.DTS-HD.MA.TrueHD.7.1.Atmos-FGT
  89. Language                                 : English
  90. Service kind                             : Complete Main
  91. Default                                  : No
  92. Forced                                   : No

  93. Audio #4
  94. ID                                       : 5
  95. Format                                   : AC-3
  96. Format/Info                              : Audio Coding 3
  97. Commercial name                          : Dolby Digital
  98. Codec ID                                 : A_AC3
  99. Duration                                 : 2 h 8 min
  100. Bit rate mode                            : Constant
  101. Bit rate                                 : 640 kb/s
  102. Channel(s)                               : 6 channels
  103. Channel layout                           : L R C LFE Ls Rs
  104. Sampling rate                            : 48.0 kHz
  105. Frame rate                               : 31.250 FPS (1536 SPF)
  106. Bit depth                                : 16 bits
  107. Compression mode                         : Lossy
  108. Stream size                              : 586 MiB (2%)
  109. Title                                    : Terminator.Dark.Fate.2019.1080p.BluRay.REMUX.AVC.DTS-HD.MA.TrueHD.7.1.Atmos-FGT
  110. Language                                 : English
  111. Service kind                             : Complete Main
  112. Default                                  : No
  113. Forced                                   : No

  114. Audio #5
  115. ID                                       : 6
  116. Format                                   : AC-3
  117. Format/Info                              : Audio Coding 3
  118. Commercial name                          : Dolby Digital
  119. Codec ID                                 : A_AC3
  120. Duration                                 : 2 h 8 min
  121. Bit rate mode                            : Constant
  122. Bit rate                                 : 640 kb/s
  123. Channel(s)                               : 6 channels
  124. Channel layout                           : L R C LFE Ls Rs
  125. Sampling rate                            : 48.0 kHz
  126. Frame rate                               : 31.250 FPS (1536 SPF)
  127. Bit depth                                : 16 bits
  128. Compression mode                         : Lossy
  129. Stream size                              : 586 MiB (2%)
  130. Title                                    : Terminator.Dark.Fate.2019.1080p.BluRay.REMUX.AVC.DTS-HD.MA.TrueHD.7.1.Atmos-FGT
  131. Language                                 : Spanish
  132. Service kind                             : Complete Main
  133. Default                                  : No
  134. Forced                                   : No

  135. Audio #6
  136. ID                                       : 7
  137. Format                                   : AC-3
  138. Format/Info                              : Audio Coding 3
  139. Commercial name                          : Dolby Digital
  140. Codec ID                                 : A_AC3
  141. Duration                                 : 2 h 8 min
  142. Bit rate mode                            : Constant
  143. Bit rate                                 : 640 kb/s
  144. Channel(s)                               : 6 channels
  145. Channel layout                           : L R C LFE Ls Rs
  146. Sampling rate                            : 48.0 kHz
  147. Frame rate                               : 31.250 FPS (1536 SPF)
  148. Bit depth                                : 16 bits
  149. Compression mode                         : Lossy
  150. Stream size                              : 586 MiB (2%)
  151. Title                                    : Terminator.Dark.Fate.2019.1080p.BluRay.REMUX.AVC.DTS-HD.MA.TrueHD.7.1.Atmos-FGT
  152. Language                                 : French
  153. Service kind                             : Complete Main
  154. Default                                  : No
  155. Forced                                   : No

  156. Text #1
  157. ID                                       : 8
  158. Format                                   : UTF-8
  159. Codec ID                                 : S_TEXT/UTF8
  160. Codec ID/Info                            : UTF-8 Plain Text
  161. Duration                                 : 1 h 57 min
  162. Bit rate                                 : 31 b/s
  163. Count of elements                        : 1078
  164. Stream size                              : 27.2 KiB (0%)
  165. Title                                    : English-SRT
  166. Language                                 : English
  167. Default                                  : Yes
  168. Forced                                   : No

  169. Text #2
  170. ID                                       : 9
  171. Format                                   : UTF-8
  172. Codec ID                                 : S_TEXT/UTF8
  173. Codec ID/Info                            : UTF-8 Plain Text
  174. Duration                                 : 1 h 57 min
  175. Bit rate                                 : 39 b/s
  176. Count of elements                        : 1387
  177. Stream size                              : 34.3 KiB (0%)
  178. Title                                    : English-SDH-SRT
  179. Language                                 : English
  180. Default                                  : No
  181. Forced                                   : No

  182. Text #3
  183. ID                                       : 10
  184. Format                                   : PGS
  185. Muxing mode                              : zlib
  186. Codec ID                                 : S_HDMV/PGS
  187. Codec ID/Info                            : Picture based subtitle format used on BDs/HD-DVDs
  188. Duration                                 : 1 h 57 min
  189. Bit rate                                 : 20.1 kb/s
  190. Count of elements                        : 2100
  191. Stream size                              : 16.9 MiB (0%)
  192. Title                                    : English-PGS
  193. Language                                 : English
  194. Default                                  : No
  195. Forced                                   : No

  196. Text #4
  197. ID                                       : 11
  198. Format                                   : PGS
  199. Muxing mode                              : zlib
  200. Codec ID                                 : S_HDMV/PGS
  201. Codec ID/Info                            : Picture based subtitle format used on BDs/HD-DVDs
  202. Duration                                 : 1 h 57 min
  203. Bit rate                                 : 27.3 kb/s
  204. Count of elements                        : 2778
  205. Stream size                              : 22.9 MiB (0%)
  206. Title                                    : English-SDH-PGS
  207. Language                                 : English
  208. Default                                  : No
  209. Forced                                   : No

  210. Text #5
  211. ID                                       : 12
  212. Format                                   : PGS
  213. Muxing mode                              : zlib
  214. Codec ID                                 : S_HDMV/PGS
  215. Codec ID/Info                            : Picture based subtitle format used on BDs/HD-DVDs
  216. Duration                                 : 2 h 7 min
  217. Bit rate                                 : 18.3 kb/s
  218. Count of elements                        : 2150
  219. Stream size                              : 16.7 MiB (0%)
  220. Title                                    : Spanish-PGS
  221. Language                                 : Spanish
  222. Default                                  : No
  223. Forced                                   : No

  224. Text #6
  225. ID                                       : 13
  226. Format                                   : PGS
  227. Muxing mode                              : zlib
  228. Codec ID                                 : S_HDMV/PGS
  229. Codec ID/Info                            : Picture based subtitle format used on BDs/HD-DVDs
  230. Duration                                 : 2 h 5 min
  231. Bit rate                                 : 316 b/s
  232. Count of elements                        : 28
  233. Stream size                              : 290 KiB (0%)
  234. Title                                    : Spanish-FORCED-PGS
  235. Language                                 : Spanish
  236. Default                                  : No
  237. Forced                                   : No

  238. Text #7
  239. ID                                       : 14
  240. Format                                   : PGS
  241. Muxing mode                              : zlib
  242. Codec ID                                 : S_HDMV/PGS
  243. Codec ID/Info                            : Picture based subtitle format used on BDs/HD-DVDs
  244. Duration                                 : 2 h 7 min
  245. Bit rate                                 : 20.9 kb/s
  246. Count of elements                        : 2468
  247. Stream size                              : 19.2 MiB (0%)
  248. Title                                    : French-PGS
  249. Language                                 : French
  250. Default                                  : No
  251. Forced                                   : No

  252. Text #8
  253. ID                                       : 15
  254. Format                                   : PGS
  255. Muxing mode                              : zlib
  256. Codec ID                                 : S_HDMV/PGS
  257. Codec ID/Info                            : Picture based subtitle format used on BDs/HD-DVDs
  258. Duration                                 : 2 h 4 min
  259. Bit rate                                 : 2 000 b/s
  260. Count of elements                        : 264
  261. Stream size                              : 1.78 MiB (0%)
  262. Title                                    : French-FORCED-PGS
  263. Language                                 : French
  264. Default                                  : No
  265. Forced                                   : No

  266. Menu
  267. 00:00:00.000                             : en:Chapter 01
  268. 00:04:19.842                             : en:Chapter 02
  269. 00:07:48.926                             : en:Chapter 03
  270. 00:11:47.915                             : en:Chapter 04
  271. 00:16:56.348                             : en:Chapter 05
  272. 00:22:10.662                             : en:Chapter 06
  273. 00:29:00.613                             : en:Chapter 07
  274. 00:33:25.753                             : en:Chapter 08
  275. 00:41:35.493                             : en:Chapter 09
  276. 00:47:02.694                             : en:Chapter 10
  277. 00:53:08.935                             : en:Chapter 11
  278. 00:57:56.806                             : en:Chapter 12
  279. 01:05:02.690                             : en:Chapter 13
  280. 01:13:07.966                             : en:Chapter 14
  281. 01:20:46.258                             : en:Chapter 15
  282. 01:27:29.744                             : en:Chapter 16
  283. 01:32:48.688                             : en:Chapter 17
  284. 01:41:45.557                             : en:Chapter 18
  285. 01:49:35.318                             : en:Chapter 19
  286. 01:57:58.488                             : en:Chapter 20
复制代码

终结者:黑暗命运 Terminator.Dark.Fate.2019.1080p.BluRay.REMUX.AVC.DTS-HD.MA.TrueHD.7.1.Atmos-FGT 35.86GB-2.png 终结者:黑暗命运 Terminator.Dark.Fate.2019.1080p.BluRay.REMUX.AVC.DTS-HD.MA.TrueHD.7.1.Atmos-FGT 35.86GB-3.png 终结者:黑暗命运 Terminator.Dark.Fate.2019.1080p.BluRay.REMUX.AVC.DTS-HD.MA.TrueHD.7.1.Atmos-FGT 35.86GB-4.png






回复

使用道具 举报

蓝光币
31
发表于 2020-1-28 08:34:26 | 显示全部楼层
谢谢楼主分享。
回复 支持 反对

使用道具 举报

蓝光币
224
发表于 2020-12-11 10:45:02 | 显示全部楼层

这东西我收了!谢谢楼主!蓝光电影网真好!
回复 支持 反对

使用道具 举报

懒得打字嘛,点击右侧快捷回复 【右侧内容,后台自定义】
您需要登录后才可以回帖 登录 | 立即加入

本版积分规则

Archiver|小黑屋| 蓝光电影网 |网站地图

Copyright © 2021 Comsenz Inc. Powered by 蓝光电影网

蓝光电影网

本站内容由用户自主分享和转载自互联网,转载目的在于传递更多信息,并不代表本网赞同其观点和对其真实性负责。

如有侵权、违反国家法律政策行为,请联系我们,我们会第一时间及时清除和处理!

举报反馈邮箱:[email protected]

快速回复 返回顶部 返回列表