找回密码

蓝光电影网

查看: 440|回复: 5

[剧情] 牛的见证 Cows.1992.1080p.BluRay.x264-USURY 7.95GB

[复制链接]
蓝光币
382
发表于 2020-1-20 13:42:15 | 显示全部楼层 |阅读模式
牛的见证 Cows.1992.1080p.BluRay.x264-USURY 7.95GB-1.png

译  名 牛的见证 / Cows / 牛
片  名 Vacas
年  代 1992
产  地 西班牙
类  别 剧情 / 恋爱 / 悬疑 / 战争
语  言 西班牙语
上映日期 1992-02-26
IMDb评分  7.2/10 from 3287 users
IMDb链接  https://www.imdb.com/title/tt0103186
豆瓣评分 7.9/10 from 982 users
豆瓣链接 https://movie.douban.com/subject/1296719/
片  长 96 分钟
导  演 Julio Medem
编  剧 Julio Medem / Michel Gaztambide
主  演 Emma Suárez
       Carmelo Gómez
       Ana Torrent
       Karra Elejalde
       Klara Badiola
       Txema Blasco
       Kandido Uranga


标  签 西班牙 | JulioMedem | 西班牙电影 | 胡里奥·密谭 | Julio_Medem | 1992 | 密谭 | 剧情

简  介  

  《牛的见证》由四个自力的部分:“懦弱的砍木手”、“斧头”、“发光的深洞”、“树林中的战争”,以曼纽一家祖孙三代的故事,组分解一个完整的历史。
  本片是西班牙著名青年导演朱里奥·密谭(《红松鼠杀人事务》、《路西亚情人》)的代表作之一。《牛》是一部魔幻现实主义色彩激烈的影片,表示了两个家属从1875年到1936年这一期间内的循环变化,寓意相当丰富。牛在西班牙的文化里是图腾崇敬的意味物,影片也赋予它神性的光芒,引领我们畅游于复杂多变的认识流当中。

获奖情况  

  第5届东京国际电影节(1992)
  青年电影比赛 青年电影樱花金奖 胡里奥·密谭
  1. Video
  2. ID                                       : 1
  3. Format                                   : AVC
  4. Format/Info                              : Advanced Video Codec
  5. Format profile                           : [email protected]
  6. Format settings                          : CABAC / 4 Ref Frames
  7. Format settings, CABAC                   : Yes
  8. Format settings, Reference frames        : 4 frames
  9. Codec ID                                 : V_MPEG4/ISO/AVC
  10. Duration                                 : 1 h 36 min
  11. Bit rate                                 : 11.2 Mb/s
  12. Width                                    : 1 920 pixels
  13. Height                                   : 1 080 pixels
  14. Display aspect ratio                     : 16:9
  15. Frame rate mode                          : Constant
  16. Frame rate                               : 24.000 FPS
  17. Color space                              : YUV
  18. Chroma subsampling                       : 4:2:0
  19. Bit depth                                : 8 bits
  20. Scan type                                : Progressive
  21. Bits/(Pixel*Frame)                       : 0.224
  22. Stream size                              : 7.51 GiB (95%)
  23. Writing library                          : x264 core 157 r2969 d4099dd
  24. Encoding settings                        : cabac=1 / ref=4 / deblock=1:-3:-3 / analyse=0x3:0x133 / me=umh / subme=9 / psy=1 / psy_rd=1.00:0.00 / mixed_ref=1 / me_range=16 / chroma_me=1 / trellis=2 / 8x8dct=1 / cqm=0 / deadzone=21,11 / fast_pskip=0 / chroma_qp_offset=-2 / threads=18 / lookahead_threads=1 / sliced_threads=0 / nr=0 / decimate=1 / interlaced=0 / bluray_compat=0 / constrained_intra=0 / bframes=3 / b_pyramid=2 / b_adapt=1 / b_bias=0 / direct=3 / weightb=1 / open_gop=0 / weightp=2 / keyint=240 / keyint_min=24 / scenecut=40 / intra_refresh=0 / rc_lookahead=50 / rc=2pass / mbtree=1 / bitrate=11168 / ratetol=1.0 / qcomp=0.60 / qpmin=0 / qpmax=69 / qpstep=4 / cplxblur=20.0 / qblur=0.5 / ip_ratio=1.40 / aq=1:1.00
  25. Language                                 : English
  26. Default                                  : Yes
  27. Forced                                   : No

  28. Audio
  29. ID                                       : 2
  30. Format                                   : AC-3
  31. Format/Info                              : Audio Coding 3
  32. Commercial name                          : Dolby Digital
  33. Codec ID                                 : A_AC3
  34. Duration                                 : 1 h 36 min
  35. Bit rate mode                            : Constant
  36. Bit rate                                 : 640 kb/s
  37. Channel(s)                               : 6 channels
  38. Channel layout                           : L R C LFE Ls Rs
  39. Sampling rate                            : 48.0 kHz
  40. Frame rate                               : 31.250 FPS (1536 SPF)
  41. Bit depth                                : 16 bits
  42. Compression mode                         : Lossy
  43. Stream size                              : 441 MiB (5%)
  44. Language                                 : Spanish
  45. Service kind                             : Complete Main
  46. Default                                  : Yes
  47. Forced                                   : No

  48. Text #1
  49. ID                                       : 3
  50. Format                                   : UTF-8
  51. Codec ID                                 : S_TEXT/UTF8
  52. Codec ID/Info                            : UTF-8 Plain Text
  53. Duration                                 : 1 h 32 min
  54. Bit rate                                 : 17 b/s
  55. Count of elements                        : 502
  56. Stream size                              : 12.0 KiB (0%)
  57. Title                                    : English
  58. Language                                 : English
  59. Default                                  : Yes
  60. Forced                                   : Yes

  61. Text #2
  62. ID                                       : 4
  63. Format                                   : UTF-8
  64. Codec ID                                 : S_TEXT/UTF8
  65. Codec ID/Info                            : UTF-8 Plain Text
  66. Duration                                 : 1 h 32 min
  67. Bit rate                                 : 22 b/s
  68. Count of elements                        : 509
  69. Stream size                              : 14.9 KiB (0%)
  70. Title                                    : French
  71. Language                                 : French
  72. Default                                  : No
  73. Forced                                   : No

  74. Menu
  75. 00:00:00.000                             : en:00:00:00.000
  76. 00:09:53.125                             : en:00:09:53.125
  77. 00:19:35.292                             : en:00:19:35.292
  78. 00:27:57.708                             : en:00:27:57.708
  79. 00:35:38.375                             : en:00:35:38.375
  80. 00:43:57.458                             : en:00:43:57.458
  81. 00:56:32.458                             : en:00:56:32.458
  82. 01:01:51.333                             : en:01:01:51.333
  83. 01:10:10.250                             : en:01:10:10.250
  84. 01:18:32.125                             : en:01:18:32.125
  85. 01:29:26.000                             : en:01:29:26.000
  86. 01:34:47.125                             : en:01:34:47.125
复制代码

牛的见证 Cows.1992.1080p.BluRay.x264-USURY 7.95GB-2.png






回复

使用道具 举报

懒得打字嘛,点击右侧快捷回复 【右侧内容,后台自定义】
您需要登录后才可以回帖 登录 | 立即加入

本版积分规则

Archiver|小黑屋| 蓝光电影网 |网站地图

Copyright © 2021 Comsenz Inc. Powered by 蓝光电影网

蓝光电影网

本站内容由用户自主分享和转载自互联网,转载目的在于传递更多信息,并不代表本网赞同其观点和对其真实性负责。

如有侵权、违反国家法律政策行为,请联系我们,我们会第一时间及时清除和处理!

举报反馈邮箱:[email protected]

快速回复 返回顶部 返回列表