找回密码

蓝光电影网

查看: 967|回复: 7

[喜剧] 千面佳人/千变女郎 Penelope.1966.1080p.BluRay.x264-HANDJOB 14.52GB

[复制链接]
蓝光币
382
发表于 2020-1-20 13:50:54 | 显示全部楼层 |阅读模式
千面才子/千变女郎 Penelope.1966.1080p.BluRay.x264-HANDJOB 14.52GB-1.png

译  名 千面才子 / 千变女郎 / 贼美人
片  名 Penelope
年  代 1966
产  地 美国
类  别 笑剧 / 犯罪
语  言 英语
上映日期 1966-11-10(美国)
IMDb评分  6.4/10 from 1377 users
IMDb链接  https://www.imdb.com/title/tt0060818
豆瓣评分 8.7/10 from 1743 users
豆瓣链接 https://movie.douban.com/subject/1302463/
片  长 97 分钟
导  演 阿瑟·希勒 Arthur Hiller
编  剧 George Wells / Howard Fast
主  演 娜塔利·伍德 Natalie Wood
       伊安·邦纳 Ian Bannen
       Dick Shawn
       彼得·法尔克 Peter Falk
       乔纳森·温特斯 Jonathan Winters
       丽拉·柯卓娃 Lila Kedrova
       娄·雅可比 Lou Jacobi
       诺玛·可瑞 Norma Crane
       阿瑟·马利特 Arthur Malet
       杰罗姆·柯万 Jerome Cowan
       阿琳·戈隆坎 Arlene Golonka
       Amzie Strickland
       比尔·冈 Bill Gunn
       卡尔·巴兰蒂尼 Carl Ballantine
       Iggie Wolfington


标  签 笑剧 | 美国 | 千面才子 | 美国电影 | 典范 | 恋爱 | 老片 | 正大戏院

简  介  

  詹姆斯(伊安·邦纳 Ian Bannen 饰)是一位奇迹小有成就的银里手,一次偶然中,他碰见了名叫佩尼洛浦(娜塔利·伍德 Natalie Wood 饰)的女子,佩尼洛浦的娇俏可人很快就将詹姆斯迷倒了,两人了解没多久,便步入了婚姻的殿堂。
  让佩尼洛浦没有想到的是,花心的詹姆斯在婚后没多久便恋上了此外女人,在悲伤和愤慨当中,佩尼洛浦决议给詹姆斯点色彩看看。一番乔装打扮以后,佩尼洛浦以劫匪的身份将詹姆斯的银行洗劫一空,事后,她将自己的所作所为告诉了心理医生格雷格(Dick Shawn 饰)。可是,格雷格却并不相信佩尼洛浦所言,由于他早就深深的爱上了这个心爱的姑娘。
  1. Video
  2. ID                                       : 1
  3. Format                                   : AVC
  4. Format/Info                              : Advanced Video Codec
  5. Format profile                           : [email protected]
  6. Format settings                          : CABAC / 5 Ref Frames
  7. Format settings, CABAC                   : Yes
  8. Format settings, Reference frames        : 5 frames
  9. Codec ID                                 : V_MPEG4/ISO/AVC
  10. Duration                                 : 1 h 37 min
  11. Bit rate                                 : 20.8 Mb/s
  12. Width                                    : 1 920 pixels
  13. Height                                   : 816 pixels
  14. Display aspect ratio                     : 2.35:1
  15. Frame rate mode                          : Constant
  16. Frame rate                               : 23.976 (24000/1001) FPS
  17. Color space                              : YUV
  18. Chroma subsampling                       : 4:2:0
  19. Bit depth                                : 8 bits
  20. Scan type                                : Progressive
  21. Bits/(Pixel*Frame)                       : 0.555
  22. Stream size                              : 14.2 GiB (98%)
  23. Writing library                          : x264 core 148 r2643 5c65704
  24. Encoding settings                        : cabac=1 / ref=5 / deblock=1:-2:-2 / analyse=0x3:0x133 / me=umh / subme=9 / psy=1 / psy_rd=1.00:0.00 / mixed_ref=1 / me_range=24 / chroma_me=1 / trellis=2 / 8x8dct=1 / cqm=0 / deadzone=21,11 / fast_pskip=0 / chroma_qp_offset=-2 / threads=12 / lookahead_threads=1 / sliced_threads=0 / nr=0 / decimate=1 / interlaced=0 / bluray_compat=0 / constrained_intra=0 / bframes=6 / b_pyramid=2 / b_adapt=2 / b_bias=0 / direct=3 / weightb=1 / open_gop=0 / weightp=2 / keyint=240 / keyint_min=24 / scenecut=40 / intra_refresh=0 / rc_lookahead=50 / rc=crf / mbtree=0 / crf=17.8 / qcomp=0.60 / qpmin=0 / qpmax=69 / qpstep=4 / vbv_maxrate=62500 / vbv_bufsize=78125 / crf_max=0.0 / nal_hrd=none / filler=0 / ip_ratio=1.40 / pb_ratio=1.30 / aq=3:0.80
  25. Default                                  : Yes
  26. Forced                                   : No
  27. Color range                              : Limited
  28. Color primaries                          : BT.709
  29. Transfer characteristics                 : BT.709
  30. Matrix coefficients                      : BT.709

  31. Audio
  32. ID                                       : 2
  33. Format                                   : FLAC
  34. Format/Info                              : Free Lossless Audio Codec
  35. Codec ID                                 : A_FLAC
  36. Duration                                 : 1 h 37 min
  37. Bit rate mode                            : Variable
  38. Bit rate                                 : 405 kb/s
  39. Channel(s)                               : 2 channels
  40. Channel layout                           : L R
  41. Sampling rate                            : 48.0 kHz
  42. Frame rate                               : 10.417 FPS (4608 SPF)
  43. Bit depth                                : 16 bits
  44. Compression mode                         : Lossless
  45. Stream size                              : 284 MiB (2%)
  46. Language                                 : English
  47. Default                                  : Yes
  48. Forced                                   : No

  49. Text
  50. ID                                       : 3
  51. Format                                   : UTF-8
  52. Codec ID                                 : S_TEXT/UTF8
  53. Codec ID/Info                            : UTF-8 Plain Text
  54. Duration                                 : 1 h 37 min
  55. Bit rate                                 : 73 b/s
  56. Count of elements                        : 1685
  57. Stream size                              : 52.6 KiB (0%)
  58. Language                                 : English
  59. Default                                  : Yes
  60. Forced                                   : No

  61. Menu
  62. 00:00:00.000                             : :Chapter 1
  63. 00:02:25.062                             : :Chapter 2
  64. 00:05:40.674                             : :Chapter 3
  65. 00:08:56.161                             : :Chapter 4
  66. 00:10:39.097                             : :Chapter 5
  67. 00:14:52.558                             : :Chapter 6
  68. 00:17:25.836                             : :Chapter 7
  69. 00:20:46.996                             : :Chapter 8
  70. 00:23:49.136                             : :Chapter 9
  71. 00:27:25.144                             : :Chapter 10
  72. 00:31:24.591                             : :Chapter 11
  73. 00:35:15.322                             : :Chapter 12
  74. 00:39:21.067                             : :Chapter 13
  75. 00:43:22.225                             : :Chapter 14
  76. 00:47:59.710                             : :Chapter 15
  77. 00:49:49.320                             : :Chapter 16
  78. 00:55:43.882                             : :Chapter 17
  79. 00:58:39.933                             : :Chapter 18
  80. 01:03:19.671                             : :Chapter 19
  81. 01:08:38.239                             : :Chapter 20
  82. 01:11:38.711                             : :Chapter 21
  83. 01:14:22.708                             : :Chapter 22
  84. 01:18:23.824                             : :Chapter 23
  85. 01:23:11.653                             : :Chapter 24
  86. 01:28:04.112                             : :Chapter 25
  87. 01:30:47.025                             : :Chapter 26
  88. 01:33:49.457                             : :Chapter 27
  89. 01:37:11.617                             : :Chapter 28
复制代码

134943ymzdgsmh8w3dsbrs.png 千面才子/千变女郎 Penelope.1966.1080p.BluRay.x264-HANDJOB 14.52GB-3.png 134954lkvwsgvg8pprkwjm.png






回复

使用道具 举报

懒得打字嘛,点击右侧快捷回复 【右侧内容,后台自定义】
您需要登录后才可以回帖 登录 | 立即加入

本版积分规则

Archiver|小黑屋| 蓝光电影网 |网站地图

Copyright © 2021 Comsenz Inc. Powered by 蓝光电影网

蓝光电影网

本站内容由用户自主分享和转载自互联网,转载目的在于传递更多信息,并不代表本网赞同其观点和对其真实性负责。

如有侵权、违反国家法律政策行为,请联系我们,我们会第一时间及时清除和处理!

举报反馈邮箱:[email protected]

快速回复 返回顶部 返回列表