找回密码

蓝光电影网

查看: 554|回复: 3

[冒险] 遗产 Heritage.2019.1080p.BluRay.x264-YOL0W 5.47GB

[复制链接]
蓝光币
382
发表于 2020-1-20 14:24:26 | 显示全部楼层 |阅读模式
遗产 Heritage.2019.1080p.BluRay.x264-YOL0W 5.47GB-1.png

译  名 遗产
片  名 Heritage
年  代 2019
产  地 美国 / 德国
类  别 冒险
语  言 英语 / 德语
IMDb评分  6.0/10 from 525 users
IMDb链接  https://www.imdb.com/title/tt5183990
豆瓣评分 0/10 from 0 users
豆瓣链接 https://movie.douban.com/subject/34935818/
片  长 78分钟
导  演 William von Tagen
编  剧 William von Tagen
主  演 贝蒂娜·齐默尔曼 Bettina Zimmermann
       Luisa Wietzorek
       彼得·洛迈尔 Peter Lohmeyer
       Travis Lincoln Cox
       Ralph Herforth
       卢卡斯·普瑞索 Lucas Prisor
       Drake Shannon
       Ronald Nitschke
       Raphael Schneider
       朱莉娅·埃费尔茨 Julia Effertz
       Maike von Bremen
       Sandra Maren Schneider


标  签 德国 | 2019 | 流亡 | 迫害 | 美国 | 东德期间 | 2020

简  介  

  A former CIA agent's search for a lost colleague exposes a deadly conspiracy involving his own family and Soviet-era secrets in the mountains of East Germany.
  1. Video
  2. ID                                       : 1
  3. Format                                   : AVC
  4. Format/Info                              : Advanced Video Codec
  5. Format profile                           : [email protected]
  6. Format settings                          : CABAC / 4 Ref Frames
  7. Format settings, CABAC                   : Yes
  8. Format settings, Reference frames        : 4 frames
  9. Codec ID                                 : V_MPEG4/ISO/AVC
  10. Duration                                 : 1 h 18 min
  11. Bit rate                                 : 8 504 kb/s
  12. Width                                    : 1 920 pixels
  13. Height                                   : 1 040 pixels
  14. Display aspect ratio                     : 1.85:1
  15. Frame rate mode                          : Constant
  16. Frame rate                               : 23.976 (24000/1001) FPS
  17. Color space                              : YUV
  18. Chroma subsampling                       : 4:2:0
  19. Bit depth                                : 8 bits
  20. Scan type                                : Progressive
  21. Bits/(Pixel*Frame)                       : 0.178
  22. Stream size                              : 4.64 GiB (85%)
  23. Writing library                          : x264 core 159 r2991 1771b55
  24. Encoding settings                        : cabac=1 / ref=4 / deblock=1:-3:-3 / analyse=0x3:0x133 / me=umh / subme=7 / psy=1 / psy_rd=1.00:0.00 / mixed_ref=1 / me_range=16 / chroma_me=1 / trellis=2 / 8x8dct=1 / cqm=0 / deadzone=21,11 / fast_pskip=1 / chroma_qp_offset=-2 / threads=16 / lookahead_threads=2 / sliced_threads=0 / nr=0 / decimate=1 / interlaced=0 / bluray_compat=0 / constrained_intra=0 / bframes=3 / b_pyramid=2 / b_adapt=2 / b_bias=0 / direct=3 / weightb=1 / open_gop=0 / weightp=2 / keyint=250 / keyint_min=23 / scenecut=40 / intra_refresh=0 / rc_lookahead=50 / rc=2pass / mbtree=1 / bitrate=8504 / ratetol=1.0 / qcomp=0.60 / qpmin=0 / qpmax=69 / qpstep=4 / cplxblur=20.0 / qblur=0.5 / ip_ratio=1.40 / aq=1:1.00
  25. Language                                 : English
  26. Default                                  : Yes
  27. Forced                                   : No
  28. Color range                              : Limited
  29. Matrix coefficients                      : BT.709

  30. Audio
  31. ID                                       : 2
  32. Format                                   : DTS
  33. Format/Info                              : Digital Theater Systems
  34. Codec ID                                 : A_DTS
  35. Duration                                 : 1 h 18 min
  36. Bit rate mode                            : Constant
  37. Bit rate                                 : 1 509 kb/s
  38. Channel(s)                               : 2 channels
  39. Channel layout                           : L R
  40. Sampling rate                            : 48.0 kHz
  41. Frame rate                               : 93.750 FPS (512 SPF)
  42. Bit depth                                : 24 bits
  43. Compression mode                         : Lossy
  44. Stream size                              : 844 MiB (15%)
  45. Language                                 : English
  46. Default                                  : Yes
  47. Forced                                   : No

  48. Text
  49. ID                                       : 3
  50. Format                                   : UTF-8
  51. Codec ID                                 : S_TEXT/UTF8
  52. Codec ID/Info                            : UTF-8 Plain Text
  53. Duration                                 : 1 h 18 min
  54. Bit rate                                 : 51 b/s
  55. Count of elements                        : 737
  56. Stream size                              : 29.5 KiB (0%)
  57. Language                                 : English
  58. Default                                  : No
  59. Forced                                   : No

  60. Menu
  61. 00:00:00.000                             : en:Chapter 01
  62. 00:07:34.621                             : en:Chapter 02
  63. 00:18:04.750                             : en:Chapter 03
  64. 00:29:32.771                             : en:Chapter 04
  65. 00:39:05.301                             : en:Chapter 05
  66. 00:49:28.424                             : en:Chapter 06
  67. 00:59:42.662                             : en:Chapter 07
  68. 01:09:28.456                             : en:Chapter 08
  69. 01:12:42.567                             : en:Chapter 09
复制代码

遗产 Heritage.2019.1080p.BluRay.x264-YOL0W 5.47GB-2.png 遗产 Heritage.2019.1080p.BluRay.x264-YOL0W 5.47GB-3.png 遗产 Heritage.2019.1080p.BluRay.x264-YOL0W 5.47GB-4.png






回复

使用道具 举报

蓝光币
637
发表于 2020-1-20 17:20:37 | 显示全部楼层
谢谢楼主无私分享。
回复 支持 反对

使用道具 举报

懒得打字嘛,点击右侧快捷回复 【右侧内容,后台自定义】
您需要登录后才可以回帖 登录 | 立即加入

本版积分规则

Archiver|小黑屋| 蓝光电影网 |网站地图

Copyright © 2021 Comsenz Inc. Powered by 蓝光电影网

蓝光电影网

本站内容由用户自主分享和转载自互联网,转载目的在于传递更多信息,并不代表本网赞同其观点和对其真实性负责。

如有侵权、违反国家法律政策行为,请联系我们,我们会第一时间及时清除和处理!

举报反馈邮箱:[email protected]

快速回复 返回顶部 返回列表