找回密码

蓝光电影网

查看: 410|回复: 4

[剧情] 年轻女子 Jeune.Femme.2017.1080p.BluRay.x264-USURY 7.95GB

[复制链接]
蓝光币
382
发表于 2020-1-20 14:28:52 | 显示全部楼层 |阅读模式
年轻女子 Jeune.Femme.2017.1080p.BluRay.x264-USURY 7.95GB-1.png

译  名 年轻女子 / Montparnasse Bienvenue / 没人爱蜜斯(台)
片  名 Jeune femme
年  代 2017
产  地 法国
类  别 剧情
语  言 法语
上映日期 2017-05-23(戛纳电影节) / 2017-11-01(法国)
IMDb评分  6.5/10 from 2008 users
IMDb链接  https://www.imdb.com/title/tt5598160
豆瓣评分 7.1/10 from 2231 users
豆瓣链接 https://movie.douban.com/subject/27009738/
片  长 97分钟
导  演 蕾欧诺·瑟哈伊 Léonor Séraille
编  剧 克伦门斯·卡瑞 Clémence Carré / 巴斯蒂安·达雷特 Bastien Daret / 蕾欧诺·瑟哈伊 Léonor Séraille
主  演 利蒂希亚·多施 Laetitia Dosch
       索莱曼·塞·迪耶 Souleymane Seye Ndiaye
       格雷·蒙赛京 Grégoire Monsaingeon
       让-克里斯托夫·弗里 Jean-Christophe Folly
       娜塔莉·理查德 Nathalie Richard
       埃里卡圣 Erika Sainte
       利拉-萝丝·吉尔贝蒂 Lila-Rose Gilberti


标  签 法国 | 女性 | 2017 | 文艺 | 剧情 | 戛纳 | 人生 | 长大

简  介  

  宝拉(利蒂希亚·多施 Laetitia Dosch 饰)在20岁那年就熟悉男友了,两人携手一路走过了冗长的十年,本以为这个汉子一定会牵着自己的手走入婚礼的殿堂,没想到在她30岁这一年,男友无情而且不成能挽回的抛弃了她。分手带给了宝拉庞大的冲击,这冲击实在是过于夸张了,致使她间接就精神解体住进了心理科。由于没法忍受心理科里可怕的治疗方式,宝拉决议“逃出疯人院”。
  身无分文而且无处可去的宝拉只要自己的爱猫一只,但还是决然决然的踏上了寻觅自我的旅程,一路上,她碰见了林林总总的人,目击了光怪陆离的人生,在这么多人生里面,有哪一个是她想要活成的样子呢?

获奖情况  

  第70届戛纳电影节(2017)
  金摄影机奖(导演童贞作奖) 蕾欧诺·瑟哈伊
  一种关注单元 一种关注大奖(提名) 蕾欧诺·瑟哈伊

  第43届法国凯撒电影奖(2018)
  最好新人女演员(提名) 利蒂希亚·多施
  最好童贞作(提名)
  1. Video
  2. ID                                       : 1
  3. Format                                   : AVC
  4. Format/Info                              : Advanced Video Codec
  5. Format profile                           : [email protected]
  6. Format settings                          : CABAC / 4 Ref Frames
  7. Format settings, CABAC                   : Yes
  8. Format settings, Reference frames        : 4 frames
  9. Codec ID                                 : V_MPEG4/ISO/AVC
  10. Duration                                 : 1 h 37 min
  11. Bit rate                                 : 10.1 Mb/s
  12. Width                                    : 1 920 pixels
  13. Height                                   : 1 040 pixels
  14. Display aspect ratio                     : 1.85:1
  15. Frame rate mode                          : Constant
  16. Frame rate                               : 24.000 FPS
  17. Color space                              : YUV
  18. Chroma subsampling                       : 4:2:0
  19. Bit depth                                : 8 bits
  20. Scan type                                : Progressive
  21. Bits/(Pixel*Frame)                       : 0.211
  22. Stream size                              : 6.91 GiB (87%)
  23. Writing library                          : x264 core 157 r2969 d4099dd
  24. Encoding settings                        : cabac=1 / ref=4 / deblock=1:-3:-3 / analyse=0x3:0x133 / me=umh / subme=9 / psy=1 / psy_rd=1.00:0.00 / mixed_ref=1 / me_range=16 / chroma_me=1 / trellis=2 / 8x8dct=1 / cqm=0 / deadzone=21,11 / fast_pskip=0 / chroma_qp_offset=-2 / threads=18 / lookahead_threads=1 / sliced_threads=0 / nr=0 / decimate=1 / interlaced=0 / bluray_compat=0 / constrained_intra=0 / bframes=3 / b_pyramid=2 / b_adapt=1 / b_bias=0 / direct=3 / weightb=1 / open_gop=0 / weightp=2 / keyint=240 / keyint_min=24 / scenecut=40 / intra_refresh=0 / rc_lookahead=50 / rc=2pass / mbtree=1 / bitrate=10112 / ratetol=1.0 / qcomp=0.60 / qpmin=0 / qpmax=69 / qpstep=4 / cplxblur=20.0 / qblur=0.5 / ip_ratio=1.40 / aq=1:1.00
  25. Language                                 : English
  26. Default                                  : Yes
  27. Forced                                   : No

  28. Audio
  29. ID                                       : 2
  30. Format                                   : DTS
  31. Format/Info                              : Digital Theater Systems
  32. Codec ID                                 : A_DTS
  33. Duration                                 : 1 h 37 min
  34. Bit rate mode                            : Constant
  35. Bit rate                                 : 1 509 kb/s
  36. Channel(s)                               : 6 channels
  37. Channel layout                           : C L R Ls Rs LFE
  38. Sampling rate                            : 48.0 kHz
  39. Frame rate                               : 93.750 FPS (512 SPF)
  40. Bit depth                                : 24 bits
  41. Compression mode                         : Lossy
  42. Stream size                              : 1.03 GiB (13%)
  43. Language                                 : French
  44. Default                                  : Yes
  45. Forced                                   : No

  46. Text
  47. ID                                       : 3
  48. Format                                   : UTF-8
  49. Codec ID                                 : S_TEXT/UTF8
  50. Codec ID/Info                            : UTF-8 Plain Text
  51. Duration                                 : 1 h 32 min
  52. Bit rate                                 : 49 b/s
  53. Count of elements                        : 1103
  54. Stream size                              : 33.6 KiB (0%)
  55. Title                                    : English
  56. Language                                 : English
  57. Default                                  : Yes
  58. Forced                                   : Yes

  59. Menu
  60. 00:00:00.000                             : en:00:00:00.000
  61. 00:01:05.000                             : en:00:01:05.000
  62. 00:10:42.250                             : en:00:10:42.250
  63. 00:20:50.458                             : en:00:20:50.458
  64. 00:34:49.333                             : en:00:34:49.333
  65. 00:46:55.083                             : en:00:46:55.083
  66. 00:59:57.000                             : en:00:59:57.000
  67. 01:12:17.542                             : en:01:12:17.542
  68. 01:26:59.375                             : en:01:26:59.375
复制代码

年轻女子 Jeune.Femme.2017.1080p.BluRay.x264-USURY 7.95GB-2.png






回复

使用道具 举报

懒得打字嘛,点击右侧快捷回复 【右侧内容,后台自定义】
您需要登录后才可以回帖 登录 | 立即加入

本版积分规则

Archiver|小黑屋| 蓝光电影网 |网站地图

Copyright © 2021 Comsenz Inc. Powered by 蓝光电影网

蓝光电影网

本站内容由用户自主分享和转载自互联网,转载目的在于传递更多信息,并不代表本网赞同其观点和对其真实性负责。

如有侵权、违反国家法律政策行为,请联系我们,我们会第一时间及时清除和处理!

举报反馈邮箱:[email protected]

快速回复 返回顶部 返回列表