找回密码

蓝光电影网

查看: 245|回复: 3

[剧情] 今天也是招人嫌的便当 Bento.Harassment.2019.JAPANESE.720p.BluRay.x264-iKiW 4.36GB

[复制链接]
蓝光币
382
发表于 2020-1-20 23:33:44 | 显示全部楼层 |阅读模式
明天也是招人嫌的便当 Bento.Harassment.2019.JAPANESE.720p.BluRay.x264-iKiW 4.36GB-1.png

译  名 明天也是招人嫌的便当 / Bento Harassment / Ky? mo iyagarase bent? / 恶搞便当反「激」战(港)
片  名 本日も嫌がらせ弁当
年  代 2019
产  地 日本
类  别 剧情 / 家庭
语  言 日语
上映日期 2019-06-15(上海电影节) / 2019-06-28(日本)
IMDb评分  6.8/10 from 86 users
IMDb链接  https://www.imdb.com/title/tt9810090
豆瓣评分 7.0/10 from 877 users
豆瓣链接 https://movie.douban.com/subject/30174424/
片  长 106分钟
导  演 塚本连平 Renpei Tsukamoto
编  剧 塚本连平 Renpei Tsukamoto
主  演 筱原凉子 Ryoko Shinohara
       芳根京子 Ky?ko Yoshine
       松井玲奈 Rena Matsui
       佐藤宽太 Kanta Sato
       佐藤隆太 Ry?ta Sat?


标  签 日本 | 家庭 | 日本电影 | 亲情 | 2019 | 筱原凉子 | 日影 | 芳根京子

简  介  

  香织( 筱原凉子 饰 )单独抚养两个女儿,小女儿读高中落后入叛逆期,交换困难,她就起头为女儿建造“招人嫌的便当”,还在博客上更新这些便当的平常,她在便当里拼出一些句子和图案,便当做为了母女二人相同的路子,而女儿终极也了解了妈妈的心。
  1. Video
  2. ID                                       : 1
  3. Format                                   : AVC
  4. Format/Info                              : Advanced Video Codec
  5. Format profile                           : [email protected]
  6. Format settings                          : CABAC / 9 Ref Frames
  7. Format settings, CABAC                   : Yes
  8. Format settings, Reference frames        : 9 frames
  9. Codec ID                                 : V_MPEG4/ISO/AVC
  10. Duration                                 : 1 h 46 min
  11. Bit rate                                 : 5 238 kb/s
  12. Width                                    : 1 280 pixels
  13. Height                                   : 694 pixels
  14. Display aspect ratio                     : 1.85:1
  15. Frame rate mode                          : Constant
  16. Frame rate                               : 23.976 (24000/1001) FPS
  17. Color space                              : YUV
  18. Chroma subsampling                       : 4:2:0
  19. Bit depth                                : 8 bits
  20. Scan type                                : Progressive
  21. Bits/(Pixel*Frame)                       : 0.246
  22. Stream size                              : 3.89 GiB (89%)
  23. Writing library                          : x264 core 129 r2245+704+36 8e61944 tMod+MixAQ [[email protected]:2:0 X86_64]
  24. Encoding settings                        : cabac=1 / ref=9 / deblock=1:-3:-3 / analyse=0x3:0x133 / me=umh / subme=11 / psy=1 / fade_compensate=0.00 / psy_rd=1.00:0.10 / mixed_ref=1 / me_range=32 / chroma_me=1 / trellis=2 / 8x8dct=1 / cqm=0 / deadzone=21,11 / fast_pskip=0 / chroma_qp_offset=-3 / threads=18 / lookahead_threads=3 / sliced_threads=0 / nr=0 / decimate=0 / interlaced=0 / bluray_compat=0 / constrained_intra=0 / fgo=0 / bframes=10 / b_pyramid=2 / b_adapt=2 / b_bias=0 / direct=3 / weightb=1 / open_gop=0 / weightp=2 / keyint=250 / keyint_min=23 / scenecut=40 / intra_refresh=0 / rc=2pass / mbtree=0 / bitrate=5238 / ratetol=1.0 / qcomp=0.70 / qpmin=0 / qpmax=69 / qpstep=4 / cplxblur=20.0 / qblur=0.5 / ip_ratio=1.40 / pb_ratio=1.30 / aq=1 / aq-strength=0.90 / aq-sensitivity=10.00 / aq-ifactor=1.00 / aq-pfactor=1.00 / aq-bfactor=1.00 / aq2=0
  25. Language                                 : Japanese
  26. Default                                  : Yes
  27. Forced                                   : No

  28. Audio
  29. ID                                       : 2
  30. Format                                   : AC-3
  31. Format/Info                              : Audio Coding 3
  32. Commercial name                          : Dolby Digital
  33. Codec ID                                 : A_AC3
  34. Duration                                 : 1 h 46 min
  35. Bit rate mode                            : Constant
  36. Bit rate                                 : 640 kb/s
  37. Channel(s)                               : 6 channels
  38. Channel layout                           : L R C LFE Ls Rs
  39. Sampling rate                            : 48.0 kHz
  40. Frame rate                               : 31.250 FPS (1536 SPF)
  41. Bit depth                                : 16 bits
  42. Compression mode                         : Lossy
  43. Stream size                              : 486 MiB (11%)
  44. Language                                 : Japanese
  45. Service kind                             : Complete Main
  46. Default                                  : Yes
  47. Forced                                   : No

  48. Text #1
  49. ID                                       : 3
  50. Format                                   : UTF-8
  51. Codec ID                                 : S_TEXT/UTF8
  52. Codec ID/Info                            : UTF-8 Plain Text
  53. Duration                                 : 1 h 45 min
  54. Bit rate                                 : 32 b/s
  55. Count of elements                        : 1103
  56. Stream size                              : 24.9 KiB (0%)
  57. Language                                 : English
  58. Default                                  : Yes
  59. Forced                                   : No

  60. Text #2
  61. ID                                       : 4
  62. Format                                   : ASS
  63. Codec ID                                 : S_TEXT/ASS
  64. Codec ID/Info                            : Advanced Sub Station Alpha
  65. Duration                                 : 1 h 46 min
  66. Bit rate                                 : 90 b/s
  67. Count of elements                        : 1441
  68. Compression mode                         : Lossless
  69. Stream size                              : 70.4 KiB (0%)
  70. Language                                 : Chinese
  71. Default                                  : No
  72. Forced                                   : No

  73. Menu
  74. 00:00:00.000                             : en:第 01 章
  75. 00:13:06.827                             : en:第 02 章
  76. 00:20:58.507                             : en:第 03 章
  77. 00:27:28.772                             : en:第 04 章
  78. 00:34:53.466                             : en:第 05 章
  79. 00:40:54.660                             : en:第 06 章
  80. 00:49:24.169                             : en:第 07 章
  81. 00:57:05.046                             : en:第 08 章
  82. 01:08:53.879                             : en:第 09 章
  83. 01:18:55.439                             : en:第 10 章
  84. 01:29:07.508                             : en:第 11 章
  85. 01:42:08.747                             : en:第 12 章
复制代码

明天也是招人嫌的便当 Bento.Harassment.2019.JAPANESE.720p.BluRay.x264-iKiW 4.36GB-2.png 明天也是招人嫌的便当 Bento.Harassment.2019.JAPANESE.720p.BluRay.x264-iKiW 4.36GB-3.png 明天也是招人嫌的便当 Bento.Harassment.2019.JAPANESE.720p.BluRay.x264-iKiW 4.36GB-4.png






回复

使用道具 举报

懒得打字嘛,点击右侧快捷回复 【右侧内容,后台自定义】
您需要登录后才可以回帖 登录 | 立即加入

本版积分规则

Archiver|小黑屋| 蓝光电影网 |网站地图

Copyright © 2021 Comsenz Inc. Powered by 蓝光电影网

蓝光电影网

本站内容由用户自主分享和转载自互联网,转载目的在于传递更多信息,并不代表本网赞同其观点和对其真实性负责。

如有侵权、违反国家法律政策行为,请联系我们,我们会第一时间及时清除和处理!

举报反馈邮箱:[email protected]

快速回复 返回顶部 返回列表