找回密码

蓝光电影网

查看: 248|回复: 2

[剧情] 真正朋友/我活不让你死 Inside.Moves.1980.1080p.BluRay.x264-PSYCHD 12.04GB

[复制链接]
蓝光币
386
发表于 2020-1-21 11:48:19 | 显示全部楼层 |阅读模式
真正朋友/我活不让你死 Inside.Moves.1980.1080p.BluRay.x264-PSYCHD 12.04GB-1.png

译  名 真正朋友 / 我活不让你死
片  名 Inside Moves
年  代 1980
产  地 美国
类  别 剧情
语  言 英语
上映日期 1980-12-19
IMDb评分  7.2/10 from 1373 users
IMDb链接  https://www.imdb.com/title/tt0080928
豆瓣评分 0/10 from 0 users
豆瓣链接 https://movie.douban.com/subject/1300163/
片  长 113 分钟
导  演 Richard Donner
编  剧 Valerie Curtin
主  演 John Savage
       David Morse
       Diana Scarwid


标  签 美国 | 美国电影 | 篮球 | 朋友 | 青春 | 活动 | 美国体育片 | 真正朋友

简  介  

  自残后的罗里(沙维奇饰)首要泡在酒吧里,当他得知侍应生杰里(摩斯饰)入选勇士队后,罗里既为他兴奋也惧怕杰里忘了他,但实在的朋友岂会是以而变心……本片实在地反应了70年月的NBA生活,而且有前勇士队球员克福德-雷、约翰-卢卡斯等9人参演。

获奖情况  

  第53届奥斯卡金像奖(1981)
  最好女配角(提名) 戴安娜·斯卡尔维德
  1. Video
  2. ID                                       : 1
  3. Format                                   : AVC
  4. Format/Info                              : Advanced Video Codec
  5. Format profile                           : [email protected]
  6. Format settings                          : CABAC / 4 Ref Frames
  7. Format settings, CABAC                   : Yes
  8. Format settings, Reference frames        : 4 frames
  9. Codec ID                                 : V_MPEG4/ISO/AVC
  10. Duration                                 : 1 h 53 min
  11. Bit rate                                 : 13.7 Mb/s
  12. Width                                    : 1 920 pixels
  13. Height                                   : 1 080 pixels
  14. Display aspect ratio                     : 16:9
  15. Frame rate mode                          : Constant
  16. Frame rate                               : 23.976 (24000/1001) FPS
  17. Color space                              : YUV
  18. Chroma subsampling                       : 4:2:0
  19. Bit depth                                : 8 bits
  20. Scan type                                : Progressive
  21. Bits/(Pixel*Frame)                       : 0.276
  22. Stream size                              : 10.6 GiB (88%)
  23. Writing library                          : x264 core 159 r2991 1771b55
  24. Encoding settings                        : cabac=1 / ref=4 / deblock=1:-3:-3 / analyse=0x3:0x113 / me=umh / subme=8 / psy=1 / psy_rd=1.10:0.00 / mixed_ref=1 / me_range=32 / chroma_me=1 / trellis=2 / 8x8dct=1 / cqm=0 / deadzone=21,11 / fast_pskip=1 / chroma_qp_offset=-2 / threads=34 / lookahead_threads=5 / sliced_threads=0 / nr=0 / decimate=1 / interlaced=0 / bluray_compat=0 / constrained_intra=0 / bframes=3 / b_pyramid=2 / b_adapt=2 / b_bias=0 / direct=3 / weightb=1 / open_gop=0 / weightp=2 / keyint=240 / keyint_min=24 / scenecut=40 / intra_refresh=0 / rc_lookahead=50 / rc=2pass / mbtree=1 / bitrate=13698 / ratetol=1.0 / qcomp=0.60 / qpmin=0 / qpmax=69 / qpstep=4 / cplxblur=20.0 / qblur=0.5 / ip_ratio=1.40 / aq=3:0.70
  25. Default                                  : Yes
  26. Forced                                   : No
  27. Statistics Tags Issue                    : no_variable_data 1970-01-01 00:00:00 / no_variable_data 2010-02-22 21:41:29
  28. FromStats_BitRate                        : 13699852
  29. FromStats_Duration                       : 01:53:12.786000000
  30. FromStats_FrameCount                     : 162864
  31. FromStats_StreamSize                     : 11632520367

  32. Audio
  33. ID                                       : 2
  34. Format                                   : DTS
  35. Format/Info                              : Digital Theater Systems
  36. Codec ID                                 : A_DTS
  37. Duration                                 : 1 h 53 min
  38. Bit rate mode                            : Constant
  39. Bit rate                                 : 1 509 kb/s
  40. Channel(s)                               : 2 channels
  41. Channel layout                           : L R
  42. Sampling rate                            : 48.0 kHz
  43. Frame rate                               : 93.750 FPS (512 SPF)
  44. Bit depth                                : 24 bits
  45. Compression mode                         : Lossy
  46. Stream size                              : 1.19 GiB (10%)
  47. Language                                 : English
  48. Default                                  : Yes
  49. Forced                                   : No
  50. Statistics Tags Issue                    : no_variable_data 1970-01-01 00:00:00 / no_variable_data 2010-02-22 21:41:29
  51. FromStats_BitRate                        : 1508999
  52. FromStats_Duration                       : 01:53:12.747000000
  53. FromStats_FrameCount                     : 636820
  54. FromStats_StreamSize                     : 1281281840

  55. Text #1
  56. ID                                       : 3
  57. Format                                   : UTF-8
  58. Codec ID                                 : S_TEXT/UTF8
  59. Codec ID/Info                            : UTF-8 Plain Text
  60. Language                                 : English
  61. Default                                  : No
  62. Forced                                   : No
  63. Statistics Tags Issue                    : no_variable_data 1970-01-01 00:00:00 / no_variable_data 2010-02-22 21:41:29
  64. FromStats_BitRate                        : 61
  65. FromStats_Duration                       : 01:48:09.775000000
  66. FromStats_FrameCount                     : 2015
  67. FromStats_StreamSize                     : 49556

  68. Text #2
  69. ID                                       : 4
  70. Format                                   : UTF-8
  71. Codec ID                                 : S_TEXT/UTF8
  72. Codec ID/Info                            : UTF-8 Plain Text
  73. Title                                    : SDH
  74. Language                                 : English
  75. Default                                  : No
  76. Forced                                   : No
  77. Statistics Tags Issue                    : no_variable_data 1970-01-01 00:00:00 / no_variable_data 2010-02-22 21:41:29
  78. FromStats_BitRate                        : 63
  79. FromStats_Duration                       : 01:49:28.729000000
  80. FromStats_FrameCount                     : 2144
  81. FromStats_StreamSize                     : 52516

  82. Menu
  83. 00:00:00.000                             : en:Chapter 01
  84. 00:07:33.119                             : en:Chapter 02
  85. 00:18:39.118                             : en:Chapter 03
  86. 00:27:23.142                             : en:Chapter 04
  87. 00:32:37.497                             : en:Chapter 05
  88. 00:38:21.049                             : en:Chapter 06
  89. 00:46:20.194                             : en:Chapter 07
  90. 00:53:35.129                             : en:Chapter 08
  91. 00:59:39.826                             : en:Chapter 09
  92. 01:05:08.905                             : en:Chapter 10
  93. 01:13:09.802                             : en:Chapter 11
  94. 01:18:38.297                             : en:Chapter 12
  95. 01:27:15.272                             : en:Chapter 13
  96. 01:38:47.338                             : en:Chapter 14
  97. 01:47:56.971                             : en:Chapter 15
复制代码

真正朋友/我活不让你死 Inside.Moves.1980.1080p.BluRay.x264-PSYCHD 12.04GB-1.png






回复

使用道具 举报

懒得打字嘛,点击右侧快捷回复 【右侧内容,后台自定义】
您需要登录后才可以回帖 登录 | 立即加入

本版积分规则

Archiver|小黑屋| 蓝光电影网 |网站地图

Copyright © 2021 Comsenz Inc. Powered by 蓝光电影网

蓝光电影网

本站内容由用户自主分享和转载自互联网,转载目的在于传递更多信息,并不代表本网赞同其观点和对其真实性负责。

如有侵权、违反国家法律政策行为,请联系我们,我们会第一时间及时清除和处理!

举报反馈邮箱:[email protected]

快速回复 返回顶部 返回列表