找回密码

蓝光电影网

查看: 287|回复: 3

[剧情] 穿过黑云杉 Through.Black.Spruce.2018.720p.BluRay.x264-SPECTACLE 4.37GB

[复制链接]
蓝光币
382
发表于 2020-1-21 11:51:20 | 显示全部楼层 |阅读模式
穿过黑云杉 Through.Black.Spruce.2018.720p.BluRay.x264-SPECTACLE 4.37GB-1.png

译  名 穿过黑云杉
片  名 Through Black Spruce
年  代 2018
产  地 加拿大
类  别 剧情
语  言 英语
上映日期 2018-09-08(多伦多电影节)
IMDb评分  5.2/10 from 256 users
IMDb链接  https://www.imdb.com/title/tt7400118
豆瓣评分 0/10 from 0 users
豆瓣链接 https://movie.douban.com/subject/30284132/
片  长 111分钟
导  演 唐·麦凯勒 Don McKellar
编  剧 Barbara Samuels
主  演 塔娜亚·比蒂 Tanaya Beatty
       格雷厄姆·格林 Graham Greene
       坦图·卡丁诺 Tantoo Cardinal
       帕尔文·考尔 Parveen Kaur
       凯欧瓦·高登 Kiowa Gordon
       罗丝安妮·休佩诺特 Roseanne Supernault
       达妮埃拉·巴博萨 Daniela Barbosa
       高莉莉 Lili Gao
       Glen Gould
       Anders Yates
       Wesley French
       Joey Klein


标  签 加拿大

简  介  

  In a story told from two different perspectives, Will Bird recounts the events which led to him being in a coma, while his niece Annie recounts her attempt to help to revive him from his coma.
  1. Video
  2. ID                                       : 1
  3. Format                                   : AVC
  4. Format/Info                              : Advanced Video Codec
  5. Format profile                           : [email protected]
  6. Format settings                          : CABAC / 9 Ref Frames
  7. Format settings, CABAC                   : Yes
  8. Format settings, Reference frames        : 9 frames
  9. Codec ID                                 : V_MPEG4/ISO/AVC
  10. Duration                                 : 1 h 51 min
  11. Bit rate                                 : 4 124 kb/s
  12. Width                                    : 1 280 pixels
  13. Height                                   : 688 pixels
  14. Display aspect ratio                     : 1.85:1
  15. Frame rate mode                          : Constant
  16. Frame rate                               : 23.976 (24000/1001) FPS
  17. Color space                              : YUV
  18. Chroma subsampling                       : 4:2:0
  19. Bit depth                                : 8 bits
  20. Scan type                                : Progressive
  21. Bits/(Pixel*Frame)                       : 0.195
  22. Stream size                              : 3.20 GiB (73%)
  23. Writing library                          : x264 core 159 r2991 1771b55
  24. Encoding settings                        : cabac=1 / ref=9 / deblock=1:-3:-3 / analyse=0x3:0x133 / me=umh / subme=10 / psy=1 / psy_rd=1.00:0.00 / mixed_ref=1 / me_range=32 / chroma_me=1 / trellis=2 / 8x8dct=1 / cqm=0 / deadzone=21,11 / fast_pskip=0 / chroma_qp_offset=-2 / threads=16 / lookahead_threads=2 / sliced_threads=0 / nr=0 / decimate=1 / interlaced=0 / bluray_compat=0 / constrained_intra=0 / bframes=8 / b_pyramid=2 / b_adapt=2 / b_bias=0 / direct=3 / weightb=1 / open_gop=0 / weightp=2 / keyint=240 / keyint_min=23 / scenecut=40 / intra_refresh=0 / rc_lookahead=60 / rc=2pass / mbtree=0 / bitrate=4124 / ratetol=1.0 / qcomp=0.60 / qpmin=0 / qpmax=69 / qpstep=4 / cplxblur=20.0 / qblur=0.5 / vbv_maxrate=62500 / vbv_bufsize=78125 / nal_hrd=none / filler=0 / ip_ratio=1.40 / pb_ratio=1.30 / aq=3:0.80
  25. Default                                  : Yes
  26. Forced                                   : No

  27. Audio
  28. ID                                       : 2
  29. Format                                   : DTS
  30. Format/Info                              : Digital Theater Systems
  31. Codec ID                                 : A_DTS
  32. Duration                                 : 1 h 51 min
  33. Bit rate mode                            : Constant
  34. Bit rate                                 : 1 509 kb/s
  35. Channel(s)                               : 6 channels
  36. Channel layout                           : C L R Ls Rs LFE
  37. Sampling rate                            : 48.0 kHz
  38. Frame rate                               : 93.750 FPS (512 SPF)
  39. Bit depth                                : 24 bits
  40. Compression mode                         : Lossy
  41. Stream size                              : 1.17 GiB (27%)
  42. Language                                 : English
  43. Default                                  : Yes
  44. Forced                                   : No

  45. Text #1
  46. ID                                       : 3
  47. Format                                   : UTF-8
  48. Codec ID                                 : S_TEXT/UTF8
  49. Codec ID/Info                            : UTF-8 Plain Text
  50. Duration                                 : 1 h 42 min
  51. Bit rate                                 : 45 b/s
  52. Count of elements                        : 1158
  53. Stream size                              : 34.2 KiB (0%)
  54. Language                                 : English
  55. Default                                  : No
  56. Forced                                   : No

  57. Text #2
  58. ID                                       : 4
  59. Format                                   : UTF-8
  60. Codec ID                                 : S_TEXT/UTF8
  61. Codec ID/Info                            : UTF-8 Plain Text
  62. Duration                                 : 1 h 43 min
  63. Bit rate                                 : 49 b/s
  64. Count of elements                        : 1312
  65. Stream size                              : 38.0 KiB (0%)
  66. Title                                    : SDH
  67. Language                                 : English
  68. Default                                  : No
  69. Forced                                   : No

  70. Menu
  71. 00:00:00.000                             : :Chapter 01
  72. 00:07:12.932                             : :Chapter 02
  73. 00:14:28.034                             : :Chapter 03
  74. 00:25:14.012                             : :Chapter 04
  75. 00:37:02.178                             : :Chapter 05
  76. 00:46:21.320                             : :Chapter 06
  77. 00:56:33.640                             : :Chapter 07
  78. 01:05:36.099                             : :Chapter 08
  79. 01:18:44.178                             : :Chapter 09
  80. 01:26:50.747                             : :Chapter 10
  81. 01:44:47.406                             : :Chapter 11
复制代码

穿过黑云杉 Through.Black.Spruce.2018.720p.BluRay.x264-SPECTACLE 4.37GB-2.png






回复

使用道具 举报

懒得打字嘛,点击右侧快捷回复 【右侧内容,后台自定义】
您需要登录后才可以回帖 登录 | 立即加入

本版积分规则

Archiver|小黑屋| 蓝光电影网 |网站地图

Copyright © 2021 Comsenz Inc. Powered by 蓝光电影网

蓝光电影网

本站内容由用户自主分享和转载自互联网,转载目的在于传递更多信息,并不代表本网赞同其观点和对其真实性负责。

如有侵权、违反国家法律政策行为,请联系我们,我们会第一时间及时清除和处理!

举报反馈邮箱:[email protected]

快速回复 返回顶部 返回列表