找回密码

蓝光电影网

查看: 346|回复: 4

[剧情] 逃亡者/欲火情焰 The.Fugitive.Kind.1960.1080p.BluRay.x264.DTS-FGT 11.07GB

[复制链接]
蓝光币
382
发表于 2020-1-21 12:01:28 | 显示全部楼层 |阅读模式
流亡者/欲火情焰 The.Fugitive.Kind.1960.1080p.BluRay.x264.DTS-FGT 11.07GB-1.png

译  名 流亡者 / 欲火情焰 / 流浪者 / 漂泊者
片  名 The Fugitive Kind
年  代 1960
产  地 美国
类  别 剧情 / 恋爱
语  言 英语
上映日期 1960-04-14(美国)
IMDb评分  7.2/10 from 5046 users
IMDb链接  https://www.imdb.com/title/tt0052832
豆瓣评分 7.2/10 from 667 users
豆瓣链接 https://movie.douban.com/subject/1293217/
片  长 119 分钟
导  演 Sidney Lumet
编  剧 Tennessee Williams / Meade Roberts
主  演 Marlon Brando
       Anna Magnani
       Joanne Woodward
       Maureen Stapleton


标  签 美国 | Sidney_Lumet | CC | 美国电影 | 马龙·白兰度 | SidneyLumet | 西德尼·吕美特 | MarlonBrando

简  介  

  悉尼.卢曼特导演的这部低调的言情浅显剧改编自田纳西.威廉斯的剧作《奥菲阿斯下凡》。由马龙.白兰度、安娜.玛格纳妮、乔安妮.伍德沃德等主演。剧情报告一个小镇糖果店的女老板,在偶然机遇下发现她那半身不遂的丈夫昔时竟黑暗烧毁她父亲的葡萄园,害得她流浪失所。因而转而向年轻的流浪吉它手身上追求幸运,可是她恶毒的丈夫不愿放过她,终极还把她射杀。故事由于选角毛病,加上编导腔调暖昧,使人对片中的三角恋爱难以佩服。
  1. Video
  2. ID                                       : 1
  3. Format                                   : AVC
  4. Format/Info                              : Advanced Video Codec
  5. Format profile                           : [email protected]
  6. Format settings                          : CABAC / 4 Ref Frames
  7. Format settings, CABAC                   : Yes
  8. Format settings, Reference frames        : 4 frames
  9. Codec ID                                 : V_MPEG4/ISO/AVC
  10. Duration                                 : 2 h 1 min
  11. Bit rate                                 : 11.5 Mb/s
  12. Width                                    : 1 800 pixels
  13. Height                                   : 1 080 pixels
  14. Display aspect ratio                     : 5:3
  15. Frame rate mode                          : Constant
  16. Frame rate                               : 23.976 (24000/1001) FPS
  17. Color space                              : YUV
  18. Chroma subsampling                       : 4:2:0
  19. Bit depth                                : 8 bits
  20. Scan type                                : Progressive
  21. Bits/(Pixel*Frame)                       : 0.247
  22. Stream size                              : 9.78 GiB (88%)
  23. Title                                    : The.Fugitive.Kind.1960.1080p.BluRay.x264.DTS-FGT
  24. Writing library                          : x264 core 148 r2748 97eaef2
  25. Encoding settings                        : cabac=1 / ref=4 / deblock=1:-2:-2 / analyse=0x3:0x113 / me=umh / subme=9 / psy=1 / psy_rd=1.00:0.15 / mixed_ref=1 / me_range=16 / chroma_me=1 / trellis=2 / 8x8dct=1 / cqm=0 / deadzone=21,11 / fast_pskip=1 / chroma_qp_offset=-3 / threads=24 / lookahead_threads=3 / sliced_threads=0 / nr=0 / decimate=1 / interlaced=0 / bluray_compat=0 / constrained_intra=0 / bframes=3 / b_pyramid=2 / b_adapt=1 / b_bias=0 / direct=3 / weightb=1 / open_gop=0 / weightp=2 / keyint=250 / keyint_min=25 / scenecut=40 / intra_refresh=0 / rc_lookahead=50 / rc=2pass / mbtree=1 / bitrate=11500 / ratetol=1.0 / qcomp=0.60 / qpmin=0 / qpmax=69 / qpstep=4 / cplxblur=20.0 / qblur=0.5 / vbv_maxrate=31250 / vbv_bufsize=31250 / nal_hrd=none / filler=0 / ip_ratio=1.40 / aq=1:1.00
  26. Language                                 : English
  27. Default                                  : Yes
  28. Forced                                   : No

  29. Audio
  30. ID                                       : 2
  31. Format                                   : DTS
  32. Format/Info                              : Digital Theater Systems
  33. Codec ID                                 : A_DTS
  34. Duration                                 : 2 h 1 min
  35. Bit rate mode                            : Constant
  36. Bit rate                                 : 1 509 kb/s
  37. Channel(s)                               : 1 channel
  38. Channel layout                           : C
  39. Sampling rate                            : 48.0 kHz
  40. Frame rate                               : 93.750 FPS (512 SPF)
  41. Bit depth                                : 16 bits
  42. Compression mode                         : Lossy
  43. Stream size                              : 1.28 GiB (12%)
  44. Title                                    : The.Fugitive.Kind.1960.1080p.BluRay.x264.DTS-FGT
  45. Language                                 : English
  46. Default                                  : Yes
  47. Forced                                   : No

  48. Text
  49. ID                                       : 3
  50. Format                                   : UTF-8
  51. Codec ID                                 : S_TEXT/UTF8
  52. Codec ID/Info                            : UTF-8 Plain Text
  53. Duration                                 : 1 h 59 min
  54. Bit rate                                 : 57 b/s
  55. Count of elements                        : 1517
  56. Stream size                              : 50.2 KiB (0%)
  57. Language                                 : English
  58. Default                                  : Yes
  59. Forced                                   : No

  60. Menu
  61. 00:00:00.000                             : en:Val Xavier
  62. 00:08:20.583                             : en:The kindness of strangers
  63. 00:15:36.060                             : en:Torrance Mercantile Store
  64. 00:20:14.088                             : en:a€?Welcome home, Jabea€?
  65. 00:23:12.391                             : en:Carol Cutrere
  66. 00:25:53.051                             : en:Jukina€?
  67. 00:29:42.531                             : en:Local bone orchard
  68. 00:36:38.363                             : en:Lady Torrance
  69. 00:43:45.164                             : en:a€?A peculiar talkera€?
  70. 00:52:32.983                             : en:a€?Fly away, little birda€?
  71. 01:01:23.221                             : en:a€?The summer you quit mea€?
  72. 01:05:28.299                             : en:Jabe calls on Val
  73. 01:10:42.029                             : en:The wine garden
  74. 01:15:20.307                             : en:A room for Val
  75. 01:20:31.994                             : en:a€?I took nobody with mea€?
  76. 01:22:16.014                             : en:a€?I see through you, Ladya€?
  77. 01:28:45.070                             : en:Ladya€?s Confectionary
  78. 01:37:33.222                             : en:The sheriff questions Val
  79. 01:41:44.390                             : en:Night of the opening
  80. 01:49:53.629                             : en:Little fig tree
  81. 01:55:23.834                             : en:Vigilantes
  82. 01:58:02.200                             : en:a€?The fugitive kinda€?
复制代码

流亡者/欲火情焰 The.Fugitive.Kind.1960.1080p.BluRay.x264.DTS-FGT 11.07GB-2.png 流亡者/欲火情焰 The.Fugitive.Kind.1960.1080p.BluRay.x264.DTS-FGT 11.07GB-3.png 流亡者/欲火情焰 The.Fugitive.Kind.1960.1080p.BluRay.x264.DTS-FGT 11.07GB-4.png






回复

使用道具 举报

懒得打字嘛,点击右侧快捷回复 【右侧内容,后台自定义】
您需要登录后才可以回帖 登录 | 立即加入

本版积分规则

Archiver|小黑屋| 蓝光电影网 |网站地图

Copyright © 2021 Comsenz Inc. Powered by 蓝光电影网

蓝光电影网

本站内容由用户自主分享和转载自互联网,转载目的在于传递更多信息,并不代表本网赞同其观点和对其真实性负责。

如有侵权、违反国家法律政策行为,请联系我们,我们会第一时间及时清除和处理!

举报反馈邮箱:[email protected]

快速回复 返回顶部 返回列表