找回密码

蓝光电影网

查看: 752|回复: 1

[恐怖] 吸血鬼盛宴 The.Devils.Plaything.1973.1080p.BluRay.x264.DD2.0-FGT 8.41GB

[复制链接]
蓝光币
382
发表于 2020-1-21 12:02:05 | 显示全部楼层 |阅读模式
吸血鬼盛宴 The.Devils.Plaything.1973.1080p.BluRay.x264.DD2.0-FGT 8.41GB-1.png

译  名 吸血鬼盛宴
片  名 Der Fluch der schwarzen Schwestern
年  代 1973
产  地 瑞典 / 瑞士 / 西德
类  别 可骇
语  言 英语
上映日期 1973-10-16
IMDb评分  4.7/10 from 442 users
IMDb链接  https://www.imdb.com/title/tt0070066
豆瓣评分 0/10 from 0 users
豆瓣链接 https://movie.douban.com/subject/1446934/
片  长 115分钟
导  演 约瑟夫·W·萨诺 Joseph W. Sarno
编  剧 约瑟夫·W·萨诺 Joseph W. Sarno
主  演 Nadia Henkowa
       Anke Syring
       Ulrike Butz
       Nico Wolferstetter


标  签 情色 | 吸血鬼 | 瑞典 | 可骇 | 惊悚 | 北欧电影 | tlf | 西&北欧

简  介  

  瑞典唯美派情色大师乔.萨诺(JOE SARNO)1972-1974年的名作“少女三部曲”之一
  乔.萨诺典范软核情色片
  在德国的山区的一个隐藏阴森的城堡中,美丽的中世纪女公爵瓦尔格阴魂不散,她曾因嗜吸女性之血被正法,临死前她发出一个诅咒,即某天她将永久地重返这个天下,以满足她不一般的肉欲。这一天终究来了!四个女人聚集在这个城堡里,她们每晚举行色情的仪式和表演轻渎的行为来使女公爵的冤灵不朽,随着女人们越来越陷进这类色情的噩梦中,女公爵新生的机遇到了...
  1. Video
  2. ID                                       : 1
  3. Format                                   : AVC
  4. Format/Info                              : Advanced Video Codec
  5. Format profile                           : [email protected]
  6. Format settings                          : CABAC / 4 Ref Frames
  7. Format settings, CABAC                   : Yes
  8. Format settings, Reference frames        : 4 frames
  9. Format settings, GOP                     : M=1, N=4
  10. Codec ID                                 : V_MPEG4/ISO/AVC
  11. Duration                                 : 1 h 42 min
  12. Bit rate                                 : 11.5 Mb/s
  13. Width                                    : 1 920 pixels
  14. Height                                   : 1 080 pixels
  15. Display aspect ratio                     : 16:9
  16. Frame rate mode                          : Constant
  17. Frame rate                               : 23.976 (24000/1001) FPS
  18. Color space                              : YUV
  19. Chroma subsampling                       : 4:2:0
  20. Bit depth                                : 8 bits
  21. Scan type                                : Progressive
  22. Bits/(Pixel*Frame)                       : 0.231
  23. Stream size                              : 8.27 GiB (98%)
  24. Title                                    : The.Devils.Plaything.1973.1080p.BluRay.x264.DD2.0-FGT
  25. Writing library                          : x264 core 148 r2748 97eaef2
  26. Encoding settings                        : cabac=1 / ref=4 / deblock=1:-2:-2 / analyse=0x3:0x113 / me=umh / subme=9 / psy=1 / psy_rd=1.00:0.15 / mixed_ref=1 / me_range=16 / chroma_me=1 / trellis=2 / 8x8dct=1 / cqm=0 / deadzone=21,11 / fast_pskip=1 / chroma_qp_offset=-3 / threads=24 / lookahead_threads=3 / sliced_threads=0 / nr=0 / decimate=1 / interlaced=0 / bluray_compat=0 / constrained_intra=0 / bframes=3 / b_pyramid=2 / b_adapt=1 / b_bias=0 / direct=3 / weightb=1 / open_gop=0 / weightp=2 / keyint=250 / keyint_min=25 / scenecut=40 / intra_refresh=0 / rc_lookahead=50 / rc=2pass / mbtree=1 / bitrate=11500 / ratetol=1.0 / qcomp=0.60 / qpmin=0 / qpmax=69 / qpstep=4 / cplxblur=20.0 / qblur=0.5 / vbv_maxrate=31250 / vbv_bufsize=31250 / nal_hrd=none / filler=0 / ip_ratio=1.40 / aq=1:1.00
  27. Default                                  : Yes
  28. Forced                                   : No

  29. Audio
  30. ID                                       : 2
  31. Format                                   : AC-3
  32. Format/Info                              : Audio Coding 3
  33. Commercial name                          : Dolby Digital
  34. Codec ID                                 : A_AC3
  35. Duration                                 : 1 h 42 min
  36. Bit rate mode                            : Constant
  37. Bit rate                                 : 192 kb/s
  38. Channel(s)                               : 2 channels
  39. Channel layout                           : L R
  40. Sampling rate                            : 48.0 kHz
  41. Frame rate                               : 31.250 FPS (1536 SPF)
  42. Bit depth                                : 16 bits
  43. Compression mode                         : Lossy
  44. Stream size                              : 141 MiB (2%)
  45. Title                                    : The.Devils.Plaything.1973.1080p.BluRay.x264.DD2.0-FGT
  46. Language                                 : English
  47. Service kind                             : Complete Main
  48. Default                                  : Yes
  49. Forced                                   : No

  50. Menu
  51. 00:00:00.000                             : en:Chapter 1
  52. 00:01:44.021                             : en:Chapter 2
  53. 00:05:58.525                             : en:Chapter 3
  54. 00:09:28.151                             : en:Chapter 4
  55. 00:13:16.546                             : en:Chapter 5
  56. 00:20:39.989                             : en:Chapter 6
  57. 00:28:15.277                             : en:Chapter 7
  58. 00:37:12.272                             : en:Chapter 8
  59. 00:48:29.657                             : en:Chapter 9
  60. 00:59:38.742                             : en:Chapter 10
  61. 01:10:44.574                             : en:Chapter 11
  62. 01:19:50.828                             : en:Chapter 12
  63. 01:31:08.380                             : en:Chapter 13
  64. 01:36:53.725                             : en:Chapter 14
  65. 01:42:52.667                             : en:Chapter 15
复制代码

吸血鬼盛宴 The.Devils.Plaything.1973.1080p.BluRay.x264.DD2.0-FGT 8.41GB-2.png 吸血鬼盛宴 The.Devils.Plaything.1973.1080p.BluRay.x264.DD2.0-FGT 8.41GB-3.png 吸血鬼盛宴 The.Devils.Plaything.1973.1080p.BluRay.x264.DD2.0-FGT 8.41GB-4.png






回复

使用道具 举报

蓝光币
338
发表于 2020-2-2 12:48:29 | 显示全部楼层

我看不错噢 谢谢楼主!蓝光电影网越来越好!
回复 支持 反对

使用道具 举报

懒得打字嘛,点击右侧快捷回复 【右侧内容,后台自定义】
您需要登录后才可以回帖 登录 | 立即加入

本版积分规则

Archiver|小黑屋| 蓝光电影网 |网站地图

Copyright © 2021 Comsenz Inc. Powered by 蓝光电影网

蓝光电影网

本站内容由用户自主分享和转载自互联网,转载目的在于传递更多信息,并不代表本网赞同其观点和对其真实性负责。

如有侵权、违反国家法律政策行为,请联系我们,我们会第一时间及时清除和处理!

举报反馈邮箱:[email protected]

快速回复 返回顶部 返回列表