找回密码

蓝光电影网

查看: 295|回复: 2

[剧情] 智多星勇擒三大贼 Sunday.In.The.Country.1974.1080p.BluRay.x264.DTS-FGT 8.40GB

[复制链接]
蓝光币
382
发表于 2020-1-21 12:03:13 | 显示全部楼层 |阅读模式
智多星勇擒三剧盗 Sunday.In.The.Country.1974.1080p.BluRay.x264.DTS-FGT 8.40GB-1.png

译  名 智多星勇擒三剧盗(港)
片  名 Sunday in the Country
年  代 1974
产  地 加拿大
类  别 剧情 / 惊悚 / 犯罪
语  言 英语
上映日期 1974
IMDb评分  6.2/10 from 384 users
IMDb链接  https://www.imdb.com/title/tt0075382
豆瓣评分 0/10 from 0 users
豆瓣链接 https://movie.douban.com/subject/5053325/
片  长 93 分钟
导  演 约翰·特伦特 John Trent
编  剧 David Main
主  演 Ernest Borgnine
       Michael J. Pollard
       Hollis McLaren
       Louis Zorich
       Cec Linder


标  签 被轻忽的电影 | 加拿大 | MichaelJ.Pollard | ErnestBorgnine | 7.1 | 1974 | ***

简  介  

  Three vicious thugs are on the run in rural America after robbing a local bank. They seek refuge at the home of a reclusive farmer, but he is prepared for their arrival and holds them at gunpoint. Unable to let them simply wait for the law, he decides to take them into into his cellar and torture them a little before the police arrive.
  1. Video
  2. ID                                       : 1
  3. Format                                   : AVC
  4. Format/Info                              : Advanced Video Codec
  5. Format profile                           : [email protected]
  6. Format settings                          : CABAC / 4 Ref Frames
  7. Format settings, CABAC                   : Yes
  8. Format settings, Reference frames        : 4 frames
  9. Codec ID                                 : V_MPEG4/ISO/AVC
  10. Duration                                 : 1 h 32 min
  11. Bit rate                                 : 11.5 Mb/s
  12. Width                                    : 1 920 pixels
  13. Height                                   : 816 pixels
  14. Display aspect ratio                     : 2.35:1
  15. Frame rate mode                          : Constant
  16. Frame rate                               : 24.000 FPS
  17. Color space                              : YUV
  18. Chroma subsampling                       : 4:2:0
  19. Bit depth                                : 8 bits
  20. Scan type                                : Progressive
  21. Bits/(Pixel*Frame)                       : 0.306
  22. Stream size                              : 7.42 GiB (88%)
  23. Title                                    : Sunday.In.The.Country.1974.1080p.BluRay.x264.DTS-FGT
  24. Writing library                          : x264 core 148 r2748 97eaef2
  25. Encoding settings                        : cabac=1 / ref=4 / deblock=1:-2:-2 / analyse=0x3:0x113 / me=umh / subme=9 / psy=1 / psy_rd=1.00:0.15 / mixed_ref=1 / me_range=16 / chroma_me=1 / trellis=2 / 8x8dct=1 / cqm=0 / deadzone=21,11 / fast_pskip=1 / chroma_qp_offset=-3 / threads=24 / lookahead_threads=3 / sliced_threads=0 / nr=0 / decimate=1 / interlaced=0 / bluray_compat=0 / constrained_intra=0 / bframes=3 / b_pyramid=2 / b_adapt=1 / b_bias=0 / direct=3 / weightb=1 / open_gop=0 / weightp=2 / keyint=250 / keyint_min=25 / scenecut=40 / intra_refresh=0 / rc_lookahead=50 / rc=2pass / mbtree=1 / bitrate=11500 / ratetol=1.0 / qcomp=0.60 / qpmin=0 / qpmax=69 / qpstep=4 / cplxblur=20.0 / qblur=0.5 / vbv_maxrate=31250 / vbv_bufsize=31250 / nal_hrd=none / filler=0 / ip_ratio=1.40 / aq=1:1.00
  26. Language                                 : English
  27. Default                                  : Yes
  28. Forced                                   : No

  29. Audio
  30. ID                                       : 2
  31. Format                                   : DTS
  32. Format/Info                              : Digital Theater Systems
  33. Codec ID                                 : A_DTS
  34. Duration                                 : 1 h 32 min
  35. Bit rate mode                            : Constant
  36. Bit rate                                 : 1 509 kb/s
  37. Channel(s)                               : 2 channels
  38. Channel layout                           : L R
  39. Sampling rate                            : 48.0 kHz
  40. Frame rate                               : 93.750 FPS (512 SPF)
  41. Bit depth                                : 16 bits
  42. Compression mode                         : Lossy
  43. Stream size                              : 997 MiB (12%)
  44. Title                                    : Sunday.In.The.Country.1974.1080p.BluRay.x264.DTS-FGT
  45. Language                                 : English
  46. Default                                  : Yes
  47. Forced                                   : No

  48. Menu
  49. 00:00:00.000                             : en:Chapter 01
  50. 00:09:09.541                             : en:Chapter 02
  51. 00:20:52.000                             : en:Chapter 03
  52. 00:30:20.958                             : en:Chapter 04
  53. 00:37:41.833                             : en:Chapter 05
  54. 00:52:05.666                             : en:Chapter 06
  55. 00:59:51.916                             : en:Chapter 07
  56. 01:12:19.958                             : en:Chapter 08
复制代码

智多星勇擒三剧盗 Sunday.In.The.Country.1974.1080p.BluRay.x264.DTS-FGT 8.40GB-2.png 智多星勇擒三剧盗 Sunday.In.The.Country.1974.1080p.BluRay.x264.DTS-FGT 8.40GB-3.png 智多星勇擒三剧盗 Sunday.In.The.Country.1974.1080p.BluRay.x264.DTS-FGT 8.40GB-4.png






回复

使用道具 举报

懒得打字嘛,点击右侧快捷回复 【右侧内容,后台自定义】
您需要登录后才可以回帖 登录 | 立即加入

本版积分规则

Archiver|小黑屋| 蓝光电影网 |网站地图

Copyright © 2021 Comsenz Inc. Powered by 蓝光电影网

蓝光电影网

本站内容由用户自主分享和转载自互联网,转载目的在于传递更多信息,并不代表本网赞同其观点和对其真实性负责。

如有侵权、违反国家法律政策行为,请联系我们,我们会第一时间及时清除和处理!

举报反馈邮箱:[email protected]

快速回复 返回顶部 返回列表