找回密码

蓝光电影网

查看: 295|回复: 7

[喜剧] 福星急转弯/与麦克在一起 Life.With.Mikey.1993.1080p.BluRay.x264.DTS-FGT 8.32GB

[复制链接]
蓝光币
382
发表于 2020-1-21 12:04:05 | 显示全部楼层 |阅读模式
福星急转弯/与麦克在一路 Life.With.Mikey.1993.1080p.BluRay.x264.DTS-FGT 8.32GB-1.png

译  名 福星急转弯 / 与麦克在一路
片  名 Life with Mikey
年  代 1993
产  地 美国
类  别 笑剧 / 家庭
语  言 英语
上映日期 1993-06-04
IMDb评分  5.6/10 from 5138 users
IMDb链接  https://www.imdb.com/title/tt0107413
豆瓣评分 0/10 from 0 users
豆瓣链接 https://movie.douban.com/subject/1300973/
片  长 91 分钟
导  演 詹姆斯·拉派恩 James Lapine
编  剧 马克·劳伦斯 Marc Lawrence
主  演 迈克尔·J·福克斯 Michael J. Fox
       克里斯蒂娜·怀道尔 Christina Vidal
       辛迪·劳帕 Cyndi Lauper


标  签 笑剧 | 美国电影 | 儿童 | USA | 1993 | 迈克尔·J·福克斯 | 美國 | 美国

简  介  

  麦克是查普曼公司的一位职业司理人。平常的工作就是凭仗其小时辰主演的电视剧《与麦克在一路》而赢得的著名度来招募儿童演员,经过形象设想和专业表演指导后向需要建造广告片的生产商保举,然后依照比例收取用度保持公司的运转。为此,麦克的身旁聚集着一群各具拿手的孩子。巴瑞就是这群孩子中的一位,只是巴瑞的狂妄使相互之间的合作显得并不默契。
  戴德节此日,麦克为一家火鸡快餐店开张剪彩后,在大街上碰到了一个叫安吉的小姑娘。由于家庭的缘由,安吉养成了盗窃的恶习。在看过安吉因再次行窃而被失主捉住的一番表演后,一种直觉告诉麦克,在安吉的身上有着其他孩子无与伦比的表演天赋。因而,麦克冒以父亲的名义把安吉从围观的人群中解救出来,并告竣了合作的协议。
  第二天,安吉带着生活用品不请自到地住到了麦克脏乱不胜的家里。经太长久的培训后,麦克就把安吉保举给了阳光光辉饼业团体的老总柯可兰师长。成果,安吉的表演不负众望,广告片的摄制也很是成功。就在麦可和同伴埃德为安吉的成功欣喜不已时,由于安吉在文件上不实在的签名激发了法令题目,已经摄制好的广告片为此也不得播出。
  为了帮助安吉因家庭缘由酿成的心灵孤寂,麦可特地找到安吉的爸爸,并在圣诞节到来此日举行了一个体开生面的集会。麦克的真诚让安吉非常的欢畅,当安吉得知麦克赖以保存的查普曼公司由于巴瑞的“跳槽”而面临破产时,安吉用孩子们自己的方式把巴瑞找了返来,一群天真欢畅的孩子终究又得以能和麦克在一路。
  1. Video
  2. ID                                       : 1
  3. Format                                   : AVC
  4. Format/Info                              : Advanced Video Codec
  5. Format profile                           : [email protected]
  6. Format settings                          : CABAC / 4 Ref Frames
  7. Format settings, CABAC                   : Yes
  8. Format settings, Reference frames        : 4 frames
  9. Codec ID                                 : V_MPEG4/ISO/AVC
  10. Duration                                 : 1 h 31 min
  11. Bit rate                                 : 11.5 Mb/s
  12. Width                                    : 1 920 pixels
  13. Height                                   : 1 036 pixels
  14. Display aspect ratio                     : 1.85:1
  15. Frame rate mode                          : Constant
  16. Frame rate                               : 23.976 (24000/1001) FPS
  17. Color space                              : YUV
  18. Chroma subsampling                       : 4:2:0
  19. Bit depth                                : 8 bits
  20. Scan type                                : Progressive
  21. Bits/(Pixel*Frame)                       : 0.241
  22. Stream size                              : 7.35 GiB (88%)
  23. Title                                    : Life.With.Mikey.1993.1080p.BluRay.x264.DTS-FGT
  24. Writing library                          : x264 core 148 r2748 97eaef2
  25. Encoding settings                        : cabac=1 / ref=4 / deblock=1:-2:-2 / analyse=0x3:0x113 / me=umh / subme=9 / psy=1 / psy_rd=1.00:0.15 / mixed_ref=1 / me_range=16 / chroma_me=1 / trellis=2 / 8x8dct=1 / cqm=0 / deadzone=21,11 / fast_pskip=1 / chroma_qp_offset=-3 / threads=24 / lookahead_threads=3 / sliced_threads=0 / nr=0 / decimate=1 / interlaced=0 / bluray_compat=0 / constrained_intra=0 / bframes=3 / b_pyramid=2 / b_adapt=1 / b_bias=0 / direct=3 / weightb=1 / open_gop=0 / weightp=2 / keyint=250 / keyint_min=25 / scenecut=40 / intra_refresh=0 / rc_lookahead=50 / rc=2pass / mbtree=1 / bitrate=11500 / ratetol=1.0 / qcomp=0.60 / qpmin=0 / qpmax=69 / qpstep=4 / cplxblur=20.0 / qblur=0.5 / vbv_maxrate=31250 / vbv_bufsize=31250 / nal_hrd=none / filler=0 / ip_ratio=1.40 / aq=1:1.00
  26. Language                                 : English
  27. Default                                  : Yes
  28. Forced                                   : No

  29. Audio
  30. ID                                       : 2
  31. Format                                   : DTS
  32. Format/Info                              : Digital Theater Systems
  33. Codec ID                                 : A_DTS
  34. Duration                                 : 1 h 31 min
  35. Bit rate mode                            : Constant
  36. Bit rate                                 : 1 509 kb/s
  37. Channel(s)                               : 2 channels
  38. Channel layout                           : L R
  39. Sampling rate                            : 48.0 kHz
  40. Frame rate                               : 93.750 FPS (512 SPF)
  41. Bit depth                                : 16 bits
  42. Compression mode                         : Lossy
  43. Stream size                              : 987 MiB (12%)
  44. Title                                    : Life.With.Mikey.1993.1080p.BluRay.x264.DTS-FGT
  45. Language                                 : English
  46. Default                                  : Yes
  47. Forced                                   : No

  48. Text
  49. ID                                       : 3
  50. Format                                   : UTF-8
  51. Codec ID                                 : S_TEXT/UTF8
  52. Codec ID/Info                            : UTF-8 Plain Text
  53. Duration                                 : 1 h 30 min
  54. Bit rate                                 : 85 b/s
  55. Count of elements                        : 1888
  56. Stream size                              : 56.8 KiB (0%)
  57. Language                                 : English
  58. Default                                  : Yes
  59. Forced                                   : No

  60. Menu
  61. 00:00:00.000                             : en:Chapter 1
  62. 00:09:49.172                             : en:Chapter 2
  63. 00:20:09.291                             : en:Chapter 3
  64. 00:34:27.440                             : en:Chapter 4
  65. 00:43:29.690                             : en:Chapter 5
  66. 00:55:33.038                             : en:Chapter 6
  67. 01:05:43.064                             : en:Chapter 7
  68. 01:18:13.772                             : en:Chapter 8
复制代码

福星急转弯/与麦克在一路 Life.With.Mikey.1993.1080p.BluRay.x264.DTS-FGT 8.32GB-2.png 福星急转弯/与麦克在一路 Life.With.Mikey.1993.1080p.BluRay.x264.DTS-FGT 8.32GB-3.png 福星急转弯/与麦克在一路 Life.With.Mikey.1993.1080p.BluRay.x264.DTS-FGT 8.32GB-4.png






回复

使用道具 举报

懒得打字嘛,点击右侧快捷回复 【右侧内容,后台自定义】
您需要登录后才可以回帖 登录 | 立即加入

本版积分规则

Archiver|小黑屋| 蓝光电影网 |网站地图

Copyright © 2021 Comsenz Inc. Powered by 蓝光电影网

蓝光电影网

本站内容由用户自主分享和转载自互联网,转载目的在于传递更多信息,并不代表本网赞同其观点和对其真实性负责。

如有侵权、违反国家法律政策行为,请联系我们,我们会第一时间及时清除和处理!

举报反馈邮箱:[email protected]

快速回复 返回顶部 返回列表