找回密码

蓝光电影网

查看: 555|回复: 3

[剧情] 布鲁克林秘案/布鲁克林孤儿 Motherless.Brooklyn.2019.1080p.BluRay.x264.DTS-HD.MA.5.1-FGT 11.65GB

[复制链接]
蓝光币
382
发表于 2020-1-22 15:13:04 | 显示全部楼层 |阅读模式
布鲁克林秘案/布鲁克林孤儿 Motherless.Brooklyn.2019.1080p.BluRay.x264.DTS-HD.MA.5.1-FGT 11.65GB-1.png

译  名 布鲁克林秘案 / 布鲁克林孤儿(台) / 布鲁克林的流浪儿 / 无母之城(港)
片  名 Motherless Brooklyn
年  代 2019
产  地 美国
类  别 剧情 / 犯罪
语  言 英语
上映日期 2019-08-30(特柳赖德电影节) / 2019-09-10(多伦多电影节) / 2019-11-01(美国)
IMDb评分  7.0/10 from 10356 users
IMDb链接  https://www.imdb.com/title/tt0385887
豆瓣评分 7.6/10 from 1758 users
豆瓣链接 https://movie.douban.com/subject/1469353/
片  长 144分钟
导  演 爱德华·诺顿 Edward Norton
编  剧 爱德华·诺顿 Edward Norton / 乔纳森·勒瑟姆 Jonathan Lethem
主  演 爱德华·诺顿 Edward Norton
       古古·姆巴塔-劳 Gugu Mbatha-Raw
       亚历克·鲍德温 Alec Baldwin
       鲍比·坎纳瓦尔 Bobby Cannavale
       威廉·达福 Willem Dafoe
       布鲁斯·威利斯 Bruce Willis
       伊桑·苏普利 Ethan Suplee
       切莉·琼斯 Cherry Jones
       达拉斯·罗伯特斯 Dallas Roberts
       乔什·帕斯 Josh Pais
       拉杜·斯平格尔 Radu Spinghel
       费舍·史蒂芬斯 Fisher Stevens
       罗伯特·维斯多姆 Robert Wisdom
       迈克尔·肯尼斯·威廉姆斯 Michael Kenneth Williams
       埃里克·贝瑞曼 Eric Berryman
       尼尔森·艾维登 Nelson Avidon
       莱斯利·曼恩 Leslie Mann
       凯蒂·戴维斯 Katy Davis
       奥利·哈斯基维 Olli Haaskivi
       黛博拉·安格 Deborah Unger
       埃兹拉·巴恩斯 Ezra Barnes
       斯蒂芬·阿德利·葛尔盖 Stephen Adly Guirgis
       拉塞尔·G·琼斯 Russell G. Jones
       布莱斯·科里根 Blaise Corrigan
       列尼斯·德洛桑托斯 Leonys Delossantos
       桃乐丝·麦卡锡 Doris McCarthy
       罗伯特·迈尔斯 Robert Myers


标  签 美国 | 犯罪 | 剧情 | 悬疑 | 2019 | 黑色诙谐 | 惊悚 | 人性

简  介  

  故事围绕1950年月纽约私人侦察莱昂内尔·“布鲁克林”·埃斯罗格展开,面临唯一导师兼好友弗兰克·明纳古怪遇害,身患抽动秽语综合征的孤儿莱昂内尔不能不高低求索,单独深入哈林爵士六合和布鲁克林穷街陋巷,极力探访这起谋杀背后的奥秘和真相。
  影片由爱德华·诺顿执导、编剧、制片并主演,于1950年月纽约大转型布景下重新归纳乔纳森·利瑟姆同名小说《布鲁克林孤儿》中各色今世人物。

获奖情况  

  第77届金球奖(2020)
  电影类 最好原创配乐(提名) 丹尼尔·彭博顿

  第18届美国视觉结果协会奖(2020)
  最好真人电影CG布景(提名)

  第24届金卫星奖(2020)
  电影部分 最好改编剧本(提名) 爱德华·诺顿
  电影部分 最好摄影(提名)
  电影部分 最好美术指导

  第40届伦敦影评人协会奖(2020)
  技术成就奖(提名) 丹尼尔·彭博顿
  1. Video
  2. ID                                       : 1
  3. Format                                   : AVC
  4. Format/Info                              : Advanced Video Codec
  5. Format profile                           : [email protected]
  6. Format settings                          : CABAC / 4 Ref Frames
  7. Format settings, CABAC                   : Yes
  8. Format settings, Reference frames        : 4 frames
  9. Codec ID                                 : V_MPEG4/ISO/AVC
  10. Duration                                 : 2 h 24 min
  11. Bit rate                                 : 9 333 kb/s
  12. Width                                    : 1 920 pixels
  13. Height                                   : 1 040 pixels
  14. Display aspect ratio                     : 1.85:1
  15. Frame rate mode                          : Constant
  16. Frame rate                               : 23.976 (24000/1001) FPS
  17. Color space                              : YUV
  18. Chroma subsampling                       : 4:2:0
  19. Bit depth                                : 8 bits
  20. Scan type                                : Progressive
  21. Bits/(Pixel*Frame)                       : 0.195
  22. Stream size                              : 9.41 GiB (81%)
  23. Title                                    : Motherless.Brooklyn.2019.1080p.BluRay.x264.DTS-HD.MA.5.1-FGT
  24. Writing library                          : x264 core 159 r2991 1771b55
  25. Encoding settings                        : cabac=1 / ref=4 / deblock=1:-3:-3 / analyse=0x3:0x113 / me=umh / subme=8 / psy=1 / psy_rd=1.00:0.00 / mixed_ref=1 / me_range=16 / chroma_me=1 / trellis=1 / 8x8dct=1 / cqm=0 / deadzone=21,11 / fast_pskip=1 / chroma_qp_offset=-2 / threads=30 / lookahead_threads=5 / sliced_threads=0 / nr=0 / decimate=1 / interlaced=0 / bluray_compat=0 / constrained_intra=0 / bframes=3 / b_pyramid=2 / b_adapt=1 / b_bias=0 / direct=3 / weightb=1 / open_gop=0 / weightp=2 / keyint=250 / keyint_min=23 / scenecut=40 / intra_refresh=0 / rc_lookahead=50 / rc=2pass / mbtree=1 / bitrate=9333 / ratetol=1.0 / qcomp=0.60 / qpmin=0 / qpmax=69 / qpstep=4 / cplxblur=20.0 / qblur=0.5 / ip_ratio=1.40 / aq=1:1.00
  26. Language                                 : English
  27. Default                                  : Yes
  28. Forced                                   : No

  29. Audio
  30. ID                                       : 2
  31. Format                                   : DTS XLL
  32. Format/Info                              : Digital Theater Systems
  33. Commercial name                          : DTS-HD Master Audio
  34. Codec ID                                 : A_DTS
  35. Duration                                 : 2 h 24 min
  36. Bit rate mode                            : Variable
  37. Bit rate                                 : 2 163 kb/s
  38. Channel(s)                               : 6 channels
  39. Channel layout                           : C L R Ls Rs LFE
  40. Sampling rate                            : 48.0 kHz
  41. Frame rate                               : 93.750 FPS (512 SPF)
  42. Bit depth                                : 16 bits
  43. Compression mode                         : Lossless
  44. Stream size                              : 2.18 GiB (19%)
  45. Title                                    : Motherless.Brooklyn.2019.1080p.BluRay.x264.DTS-HD.MA.5.1-FGT
  46. Language                                 : English
  47. Default                                  : Yes
  48. Forced                                   : No

  49. Text #1
  50. ID                                       : 3
  51. Format                                   : UTF-8
  52. Codec ID                                 : S_TEXT/UTF8
  53. Codec ID/Info                            : UTF-8 Plain Text
  54. Duration                                 : 2 h 15 min
  55. Bit rate                                 : 80 b/s
  56. Count of elements                        : 2332
  57. Stream size                              : 80.4 KiB (0%)
  58. Title                                    : English-SRT
  59. Language                                 : English
  60. Default                                  : Yes
  61. Forced                                   : No

  62. Text #2
  63. ID                                       : 4
  64. Format                                   : PGS
  65. Muxing mode                              : zlib
  66. Codec ID                                 : S_HDMV/PGS
  67. Codec ID/Info                            : Picture based subtitle format used on BDs/HD-DVDs
  68. Duration                                 : 2 h 16 min
  69. Bit rate                                 : 51.1 kb/s
  70. Count of elements                        : 4934
  71. Stream size                              : 49.8 MiB (0%)
  72. Title                                    : English-PGS
  73. Language                                 : English
  74. Default                                  : No
  75. Forced                                   : No

  76. Text #3
  77. ID                                       : 5
  78. Format                                   : PGS
  79. Muxing mode                              : zlib
  80. Codec ID                                 : S_HDMV/PGS
  81. Codec ID/Info                            : Picture based subtitle format used on BDs/HD-DVDs
  82. Duration                                 : 2 h 23 min
  83. Bit rate                                 : 36.6 kb/s
  84. Count of elements                        : 4186
  85. Stream size                              : 37.6 MiB (0%)
  86. Title                                    : French-PGS
  87. Language                                 : French
  88. Default                                  : No
  89. Forced                                   : No

  90. Text #4
  91. ID                                       : 6
  92. Format                                   : PGS
  93. Muxing mode                              : zlib
  94. Codec ID                                 : S_HDMV/PGS
  95. Codec ID/Info                            : Picture based subtitle format used on BDs/HD-DVDs
  96. Duration                                 : 2 h 23 min
  97. Bit rate                                 : 45.9 kb/s
  98. Count of elements                        : 4606
  99. Stream size                              : 47.1 MiB (0%)
  100. Title                                    : Spanish-PGS
  101. Language                                 : Spanish
  102. Default                                  : No
  103. Forced                                   : No

  104. Text #5
  105. ID                                       : 7
  106. Format                                   : PGS
  107. Muxing mode                              : zlib
  108. Codec ID                                 : S_HDMV/PGS
  109. Codec ID/Info                            : Picture based subtitle format used on BDs/HD-DVDs
  110. Duration                                 : 2 h 23 min
  111. Bit rate                                 : 40.8 kb/s
  112. Count of elements                        : 4528
  113. Stream size                              : 41.9 MiB (0%)
  114. Title                                    : Portuguese-PGS
  115. Language                                 : Portuguese
  116. Default                                  : No
  117. Forced                                   : No

  118. Menu
  119. 00:00:00.000                             : en:Chapter 01
  120. 00:09:57.847                             : en:Chapter 02
  121. 00:19:20.325                             : en:Chapter 03
  122. 00:29:14.586                             : en:Chapter 04
  123. 00:38:47.575                             : en:Chapter 05
  124. 00:46:33.957                             : en:Chapter 06
  125. 00:54:01.821                             : en:Chapter 07
  126. 01:02:12.603                             : en:Chapter 08
  127. 01:08:42.618                             : en:Chapter 09
  128. 01:17:48.205                             : en:Chapter 10
  129. 01:26:55.919                             : en:Chapter 11
  130. 01:34:07.350                             : en:Chapter 12
  131. 01:41:25.704                             : en:Chapter 13
  132. 01:50:29.289                             : en:Chapter 14
  133. 02:00:21.005                             : en:Chapter 15
  134. 02:07:02.823                             : en:Chapter 16
  135. 02:17:16.603                             : en:Chapter 17
复制代码

布鲁克林秘案/布鲁克林孤儿 Motherless.Brooklyn.2019.1080p.BluRay.x264.DTS-HD.MA.5.1-FGT 11.65-2.png 布鲁克林秘案/布鲁克林孤儿 Motherless.Brooklyn.2019.1080p.BluRay.x264.DTS-HD.MA.5.1-FGT 11.65-3.png 布鲁克林秘案/布鲁克林孤儿 Motherless.Brooklyn.2019.1080p.BluRay.x264.DTS-HD.MA.5.1-FGT 11.65-4.png






回复

使用道具 举报

蓝光币
637
发表于 2020-1-22 18:23:49 | 显示全部楼层
谢谢楼主无私分享。
回复 支持 反对

使用道具 举报

蓝光币
115
发表于 2020-1-22 20:40:53 | 显示全部楼层

楼主太厉害了!楼主,电影应该很好看我觉得蓝光电影网真是个好地方!
回复 支持 反对

使用道具 举报

蓝光币
304
发表于 2020-1-24 07:06:51 | 显示全部楼层
谢谢楼主分享
回复 支持 反对

使用道具 举报

懒得打字嘛,点击右侧快捷回复 【右侧内容,后台自定义】
您需要登录后才可以回帖 登录 | 立即加入

本版积分规则

Archiver|小黑屋| 蓝光电影网 |网站地图

Copyright © 2021 Comsenz Inc. Powered by 蓝光电影网

蓝光电影网

本站内容由用户自主分享和转载自互联网,转载目的在于传递更多信息,并不代表本网赞同其观点和对其真实性负责。

如有侵权、违反国家法律政策行为,请联系我们,我们会第一时间及时清除和处理!

举报反馈邮箱:[email protected]

快速回复 返回顶部 返回列表