找回密码

蓝光电影网

查看: 327|回复: 5

[剧情] 哈丽特 Harriet.2019.1080p.BluRay.x264.DTS-HD.MA.7.1-FGT 13.00GB

[复制链接]
蓝光币
386
发表于 2020-1-22 15:14:31 | 显示全部楼层 |阅读模式
哈丽特 Harriet.2019.1080p.BluRay.x264.DTS-HD.MA.7.1-FGT 13.00GB-1.png

译  名 哈丽特 / Freedom Fire / 自在之火
片  名 Harriet
年  代 2019
产  地 美国
类  别 剧情 / 列传 / 历史
语  言 英语
上映日期 2019-09-10(多伦多电影节) / 2019-11-01(美国)
IMDb评分  6.3/10 from 5192 users
IMDb链接  https://www.imdb.com/title/tt4648786
豆瓣评分 5.9/10 from 235 users
豆瓣链接 https://movie.douban.com/subject/26786097/
片  长 125分钟
导  演 卡斯·莱蒙斯 Kasi Lemmons
编  剧 卡斯·莱蒙斯 Kasi Lemmons / 格雷戈里·艾伦·霍华德 Gregory Allen Howard
主  演 辛西娅·艾莉佛 Cynthia Erivo
       乔·阿尔文 Joe Alwyn
       加奈儿·梦奈 Janelle Monáe
       詹妮弗·内特尔斯 Jennifer Nettles
       蒂姆·金尼 Tim Guinee
       瓦妮莎·贝尔·卡洛威 Vanessa Bell Calloway
       克拉克·彼得斯 Clarke Peters
       小莱斯利·奥多姆 Leslie Odom Jr.
       沃迪·科蒂斯·霍尔 Vondie Curtis-Hall
       黛博拉·艾里德 Deborah Ayorinde
       托利·基特尔斯 Tory Kittles
       奥马尔·J·多尔西 Omar J. Dorsey
       米切尔·霍格 Mitchell Hoog
       施奎塔·詹姆斯 Shiquita James
       扎克瑞·莫莫 Zackary Momoh
       阿里娅·布鲁克斯 Aria Brooks
       迈克尔·图尔克 Michael Tourek
       约瑟夫·李·安德森 Joseph Lee Anderson
       皮特·布里斯 Pete Burris
       托马斯·基根 Thomas Keegan


标  签 列传 | 美国 | 历史 | 女性 | 2019 | 剧情 | 自在 | KasiLemmons

简  介  

  乔·阿尔文、小莱斯利·奥多姆将加盟列传影片[哈丽特],先前公布加盟的卡司包括辛西娅·埃里沃、克拉克·彼得斯等。塞斯·曼恩(《河山平安》)执导。哈丽特·塔布曼生于1822年,原本是生活在马里兰州的黑奴,1849年她逃到北方,未几后加入到帮助仆从流亡的美国“地下铁路”中,成为最活跃的魁首之一,屡次回抵故乡率领其他仆从逃往北方。南北战争爆发后,塔布曼积极参战,成为北军中为数不多的女性,战后她投身了争取妇女权益的活动。哈丽特也是首位登上美圆的女性。影片将于下月在美国弗吉尼亚州开拍。

获奖情况  

  第92届奥斯卡金像奖(2020)
  最好女配角(提名) 辛西娅·艾莉佛
  最好原创歌曲(提名) 辛西娅·艾莉佛 / 乔舒亚·布赖恩·坎贝尔

  第77届金球奖(2020)
  电影类 剧情片最好女配角(提名) 辛西娅·艾莉佛
  电影类 最好原创歌曲(提名)

  第26届美国演员工会奖(2020)
  电影奖 最好女配角(提名) 辛西娅·艾莉佛

  第25届美国批评家挑选电影奖(2020)
  最好女配角(提名) 辛西娅·艾莉佛
  最好歌曲(提名)

  第24届金卫星奖(2020)
  电影部分 剧情片最好女配角(提名) 辛西娅·艾莉佛
  电影部分 最好原创配乐(提名)

  第23届好莱坞电影奖(2019)
  年度冲破女演员 辛西娅·艾莉佛

  第40届伦敦影评人协会奖(2020)
  年度英国/爱尔兰女演员(提名) 辛西娅·艾莉佛
  1. Video
  2. ID                                       : 1
  3. Format                                   : AVC
  4. Format/Info                              : Advanced Video Codec
  5. Format profile                           : [email protected]
  6. Format settings                          : CABAC / 5 Ref Frames
  7. Format settings, CABAC                   : Yes
  8. Format settings, Reference frames        : 5 frames
  9. Codec ID                                 : V_MPEG4/ISO/AVC
  10. Duration                                 : 2 h 5 min
  11. Bit rate                                 : 9 750 kb/s
  12. Width                                    : 1 920 pixels
  13. Height                                   : 808 pixels
  14. Display aspect ratio                     : 2.40:1
  15. Frame rate mode                          : Constant
  16. Frame rate                               : 23.976 (24000/1001) FPS
  17. Color space                              : YUV
  18. Chroma subsampling                       : 4:2:0
  19. Bit depth                                : 8 bits
  20. Scan type                                : Progressive
  21. Bits/(Pixel*Frame)                       : 0.262
  22. Stream size                              : 8.52 GiB (66%)
  23. Title                                    : Harriet.2019.1080p.BluRay.x264.DTS-HD.MA.7.1-FGT
  24. Writing library                          : x264 core 159 r2991 1771b55
  25. Encoding settings                        : cabac=1 / ref=5 / deblock=1:-3:-3 / analyse=0x3:0x113 / me=umh / subme=8 / psy=1 / psy_rd=1.00:0.00 / mixed_ref=1 / me_range=16 / chroma_me=1 / trellis=1 / 8x8dct=1 / cqm=0 / deadzone=21,11 / fast_pskip=1 / chroma_qp_offset=-2 / threads=25 / lookahead_threads=4 / sliced_threads=0 / nr=0 / decimate=1 / interlaced=0 / bluray_compat=0 / constrained_intra=0 / bframes=3 / b_pyramid=2 / b_adapt=1 / b_bias=0 / direct=3 / weightb=1 / open_gop=0 / weightp=2 / keyint=250 / keyint_min=23 / scenecut=40 / intra_refresh=0 / rc_lookahead=50 / rc=2pass / mbtree=1 / bitrate=9750 / ratetol=1.0 / qcomp=0.60 / qpmin=0 / qpmax=69 / qpstep=4 / cplxblur=20.0 / qblur=0.5 / ip_ratio=1.40 / aq=1:1.00
  26. Language                                 : English
  27. Default                                  : Yes
  28. Forced                                   : No

  29. Audio
  30. ID                                       : 2
  31. Format                                   : DTS XLL
  32. Format/Info                              : Digital Theater Systems
  33. Commercial name                          : DTS-HD Master Audio
  34. Codec ID                                 : A_DTS
  35. Duration                                 : 2 h 5 min
  36. Bit rate mode                            : Variable
  37. Bit rate                                 : 5 069 kb/s
  38. Channel(s)                               : 8 channels
  39. Channel layout                           : C L R LFE Lb Rb Lss Rss
  40. Sampling rate                            : 48.0 kHz
  41. Frame rate                               : 93.750 FPS (512 SPF)
  42. Bit depth                                : 24 bits
  43. Compression mode                         : Lossless
  44. Stream size                              : 4.43 GiB (34%)
  45. Title                                    : Harriet.2019.1080p.BluRay.x264.DTS-HD.MA.7.1-FGT
  46. Language                                 : English
  47. Default                                  : Yes
  48. Forced                                   : No

  49. Text #1
  50. ID                                       : 3
  51. Format                                   : UTF-8
  52. Codec ID                                 : S_TEXT/UTF8
  53. Codec ID/Info                            : UTF-8 Plain Text
  54. Duration                                 : 2 h 1 min
  55. Bit rate                                 : 51 b/s
  56. Count of elements                        : 1536
  57. Stream size                              : 45.8 KiB (0%)
  58. Title                                    : English-SRT
  59. Language                                 : English
  60. Default                                  : Yes
  61. Forced                                   : No

  62. Text #2
  63. ID                                       : 4
  64. Format                                   : PGS
  65. Muxing mode                              : zlib
  66. Codec ID                                 : S_HDMV/PGS
  67. Codec ID/Info                            : Picture based subtitle format used on BDs/HD-DVDs
  68. Duration                                 : 2 h 2 min
  69. Bit rate                                 : 37.1 kb/s
  70. Count of elements                        : 3414
  71. Stream size                              : 32.6 MiB (0%)
  72. Title                                    : English-PGS
  73. Language                                 : English
  74. Default                                  : No
  75. Forced                                   : No

  76. Text #3
  77. ID                                       : 5
  78. Format                                   : PGS
  79. Muxing mode                              : zlib
  80. Codec ID                                 : S_HDMV/PGS
  81. Codec ID/Info                            : Picture based subtitle format used on BDs/HD-DVDs
  82. Duration                                 : 2 h 3 min
  83. Bit rate                                 : 31.1 kb/s
  84. Count of elements                        : 2711
  85. Stream size                              : 27.6 MiB (0%)
  86. Title                                    : Spanish-PGS
  87. Language                                 : Spanish
  88. Default                                  : No
  89. Forced                                   : No

  90. Text #4
  91. ID                                       : 6
  92. Format                                   : PGS
  93. Muxing mode                              : zlib
  94. Codec ID                                 : S_HDMV/PGS
  95. Codec ID/Info                            : Picture based subtitle format used on BDs/HD-DVDs
  96. Duration                                 : 2 h 3 min
  97. Bit rate                                 : 34.0 kb/s
  98. Count of elements                        : 2698
  99. Stream size                              : 30.2 MiB (0%)
  100. Title                                    : French-PGS
  101. Language                                 : French
  102. Default                                  : No
  103. Forced                                   : No

  104. Menu
  105. 00:00:00.000                             : en:Chapter 01
  106. 00:07:19.522                             : en:Chapter 02
  107. 00:15:38.228                             : en:Chapter 03
  108. 00:21:44.845                             : en:Chapter 04
  109. 00:26:02.269                             : en:Chapter 05
  110. 00:32:32.533                             : en:Chapter 06
  111. 00:42:15.115                             : en:Chapter 07
  112. 00:47:42.693                             : en:Chapter 08
  113. 00:53:37.672                             : en:Chapter 09
  114. 01:00:14.902                             : en:Chapter 10
  115. 01:05:27.840                             : en:Chapter 11
  116. 01:12:32.973                             : en:Chapter 12
  117. 01:20:03.173                             : en:Chapter 13
  118. 01:24:47.457                             : en:Chapter 14
  119. 01:29:37.121                             : en:Chapter 15
  120. 01:34:13.648                             : en:Chapter 16
  121. 01:42:48.162                             : en:Chapter 17
  122. 01:47:58.388                             : en:Chapter 18
  123. 01:54:02.460                             : en:Chapter 19
  124. 01:58:13.669                             : en:Chapter 20
复制代码

哈丽特 Harriet.2019.1080p.BluRay.x264.DTS-HD.MA.7.1-FGT 13.00GB-2.png 哈丽特 Harriet.2019.1080p.BluRay.x264.DTS-HD.MA.7.1-FGT 13.00GB-3.png 哈丽特 Harriet.2019.1080p.BluRay.x264.DTS-HD.MA.7.1-FGT 13.00GB-4.png






回复

使用道具 举报

蓝光币
636
发表于 2020-1-22 18:24:48 | 显示全部楼层
谢谢楼主无私分享。
回复 支持 反对

使用道具 举报

懒得打字嘛,点击右侧快捷回复 【右侧内容,后台自定义】
您需要登录后才可以回帖 登录 | 立即加入

本版积分规则

Archiver|小黑屋| 蓝光电影网 |网站地图

Copyright © 2021 Comsenz Inc. Powered by 蓝光电影网

蓝光电影网

本站内容由用户自主分享和转载自互联网,转载目的在于传递更多信息,并不代表本网赞同其观点和对其真实性负责。

如有侵权、违反国家法律政策行为,请联系我们,我们会第一时间及时清除和处理!

举报反馈邮箱:[email protected]

快速回复 返回顶部 返回列表