找回密码

蓝光电影网

查看: 360|回复: 3

[喜剧] 野樱桃 Wild.Cherry.2009.1080p.BluRay.x264.DTS-FGT 7.76GB

[复制链接]
蓝光币
386
发表于 2020-1-22 15:15:13 | 显示全部楼层 |阅读模式
野樱桃 Wild.Cherry.2009.1080p.BluRay.x264.DTS-FGT 7.76GB-1.png

译  名 野樱桃
片  名 Wild Cherry
年  代 2009
产  地 加拿大 / 美国
类  别 笑剧
语  言 英语
上映日期 2009-02-08
IMDb评分  4.1/10 from 1721 users
IMDb链接  https://www.imdb.com/title/tt1222329
豆瓣评分 4.2/10 from 96 users
豆瓣链接 https://movie.douban.com/subject/3152731/
导  演 Dana Lustig
编  剧 Chris Charney
主  演 Rob Schneider
       Rumer Willis
       Tia Carrere


标  签 青春 | 美国 | 美国电影 | 校园 | 笑剧 | 恶搞 | 少男少女的感动 | 加拿大

简  介  

  In high school, three girlfriends decide to make a secret pact with each other to wait to have sex, save themselves until they feel the time is right, despite an aggressive plan from the opposing sex.
  Three hot high school seniors are shocked to discover their names in a legendary book that pairs the school's virgins with football players. Outraged, the girls are determined to show the guys who's really running the game of love and launch a series of hilarious, humiliating pranks to get back at the baffled boys in a hysterical battle of the sexes. Rumer Willis (90210), Tania Raymonde (Lost) and Kristin Cavallari (The Hills) star with Rob Schneider (Saturday Night Live) as an overprotective father reluctant to let his daughter grow up.
  一个女高中生决议要报复她的男朋友,她发现他只是约会她,希望她会在他的球队”bang book”中竣事。
  1. Video
  2. ID                                       : 1
  3. Format                                   : AVC
  4. Format/Info                              : Advanced Video Codec
  5. Format profile                           : [email protected]
  6. Format settings                          : CABAC / 4 Ref Frames
  7. Format settings, CABAC                   : Yes
  8. Format settings, Reference frames        : 4 frames
  9. Codec ID                                 : V_MPEG4/ISO/AVC
  10. Duration                                 : 1 h 25 min
  11. Bit rate                                 : 11.5 Mb/s
  12. Width                                    : 1 916 pixels
  13. Height                                   : 1 080 pixels
  14. Display aspect ratio                     : 16:9
  15. Frame rate mode                          : Constant
  16. Frame rate                               : 23.976 (24000/1001) FPS
  17. Color space                              : YUV
  18. Chroma subsampling                       : 4:2:0
  19. Bit depth                                : 8 bits
  20. Scan type                                : Progressive
  21. Bits/(Pixel*Frame)                       : 0.232
  22. Stream size                              : 6.86 GiB (88%)
  23. Title                                    : Wild.Cherry.2009.1080p.BluRay.x264.DTS-FGT
  24. Writing library                          : x264 core 148 r2748 97eaef2
  25. Encoding settings                        : cabac=1 / ref=4 / deblock=1:-2:-2 / analyse=0x3:0x113 / me=umh / subme=9 / psy=1 / psy_rd=1.00:0.15 / mixed_ref=1 / me_range=16 / chroma_me=1 / trellis=2 / 8x8dct=1 / cqm=0 / deadzone=21,11 / fast_pskip=1 / chroma_qp_offset=-3 / threads=72 / lookahead_threads=3 / sliced_threads=0 / nr=0 / decimate=1 / interlaced=0 / bluray_compat=0 / constrained_intra=0 / bframes=3 / b_pyramid=2 / b_adapt=1 / b_bias=0 / direct=3 / weightb=1 / open_gop=0 / weightp=2 / keyint=250 / keyint_min=25 / scenecut=40 / intra_refresh=0 / rc_lookahead=50 / rc=2pass / mbtree=1 / bitrate=11500 / ratetol=1.0 / qcomp=0.60 / qpmin=0 / qpmax=69 / qpstep=4 / cplxblur=20.0 / qblur=0.5 / vbv_maxrate=31250 / vbv_bufsize=31250 / nal_hrd=none / filler=0 / ip_ratio=1.40 / aq=1:1.00
  26. Language                                 : English
  27. Default                                  : Yes
  28. Forced                                   : No

  29. Audio
  30. ID                                       : 2
  31. Format                                   : DTS
  32. Format/Info                              : Digital Theater Systems
  33. Codec ID                                 : A_DTS
  34. Duration                                 : 1 h 25 min
  35. Bit rate mode                            : Constant
  36. Bit rate                                 : 1 509 kb/s
  37. Channel(s)                               : 6 channels
  38. Channel layout                           : C L R Ls Rs LFE
  39. Sampling rate                            : 48.0 kHz
  40. Frame rate                               : 93.750 FPS (512 SPF)
  41. Bit depth                                : 16 bits
  42. Compression mode                         : Lossy
  43. Stream size                              : 922 MiB (12%)
  44. Title                                    : Wild.Cherry.2009.1080p.BluRay.x264.DTS-FGT
  45. Language                                 : English
  46. Default                                  : Yes
  47. Forced                                   : No

  48. Text
  49. ID                                       : 3
  50. Format                                   : UTF-8
  51. Codec ID                                 : S_TEXT/UTF8
  52. Codec ID/Info                            : UTF-8 Plain Text
  53. Duration                                 : 1 h 22 min
  54. Bit rate                                 : 72 b/s
  55. Count of elements                        : 1318
  56. Stream size                              : 44.2 KiB (0%)
  57. Language                                 : English
  58. Default                                  : Yes
  59. Forced                                   : No

  60. Menu
  61. 00:00:00.000                             : en:Chapter 01
  62. 00:03:19.950                             : en:Chapter 02
  63. 00:12:38.675                             : en:Chapter 03
  64. 00:23:28.198                             : en:Chapter 04
  65. 00:33:21.875                             : en:Chapter 05
  66. 00:39:11.599                             : en:Chapter 06
  67. 00:48:42.878                             : en:Chapter 07
  68. 00:54:27.764                             : en:Chapter 08
  69. 01:02:26.451                             : en:Chapter 09
  70. 01:07:32.966                             : en:Chapter 10
  71. 01:13:22.315                             : en:Chapter 11
  72. 01:20:21.150                             : en:Chapter 12
复制代码

野樱桃 Wild.Cherry.2009.1080p.BluRay.x264.DTS-FGT 7.76GB-2.png 野樱桃 Wild.Cherry.2009.1080p.BluRay.x264.DTS-FGT 7.76GB-3.png 野樱桃 Wild.Cherry.2009.1080p.BluRay.x264.DTS-FGT 7.76GB-4.png






回复

使用道具 举报

懒得打字嘛,点击右侧快捷回复 【右侧内容,后台自定义】
您需要登录后才可以回帖 登录 | 立即加入

本版积分规则

Archiver|小黑屋| 蓝光电影网 |网站地图

Copyright © 2021 Comsenz Inc. Powered by 蓝光电影网

蓝光电影网

本站内容由用户自主分享和转载自互联网,转载目的在于传递更多信息,并不代表本网赞同其观点和对其真实性负责。

如有侵权、违反国家法律政策行为,请联系我们,我们会第一时间及时清除和处理!

举报反馈邮箱:[email protected]

快速回复 返回顶部 返回列表