找回密码

蓝光电影网

查看: 266|回复: 2

[喜剧] 莫西干回到故乡 The.Mohican.Comes.Home.2016.JAPANESE.1080p.BluRay.x264-iKiW 9.75GB

[复制链接]
蓝光币
426
发表于 2020-1-22 15:16:15 | 显示全部楼层 |阅读模式
莫西干回到故乡 The.Mohican.Comes.Home.2016.JAPANESE.1080p.BluRay.x264-iKiW 9.75GB-1.png

译  名 莫西干回到故乡 / Mohican Comes Home / Mohican Kokyo ni Kaeru / 庞克头返乡记(台) / 莫西干回故乡 / 莫西干归乡
片  名 モヒカン故郷に帰る
年  代 2016
产  地 日本
类  别 笑剧
语  言 日语
上映日期 2016-04-09(日本)
IMDb评分  6.8/10 from 188 users
IMDb链接  https://www.imdb.com/title/tt4691804
豆瓣评分 7.7/10 from 8732 users
豆瓣链接 https://movie.douban.com/subject/26356321/
片  长 125分钟
导  演 冲田修一 Sh?ichi Okita
编  剧 冲田修一 Sh?ichi Okita
主  演 松田龙平 Ry?hei Matsuda
       柄本明 Akira Emoto
       前田敦子 Atsuko Maeda
       罇真佐子 Masako Motai
       千叶雄大 Yudai Chiba
       木场胜己 Katsumi Kiba
       美保纯 Jun Miho
       小柴亮太
       富田望生 Miu Tomita
       守屋文雄 Fumio Moriya


标  签 日本 | 笑剧 | 家庭 | 2016 | 温情 | 亲情 | 剧情 | 龙平

简  介  

  富贵大城市,有一支辛劳打拼而别名不见经传的摇滚乐队。作为乐队成员的田村永吉(松田龙平 饰)来自位于广岛县濑户内海上的户鼻岛,此时他已经离家整整七年了。前途一片迷茫,加上新近得知女友会泽由佳(前田敦子 饰)怀孕的消息,这个留着莫西干头的小青年关于决议停止乐队活动,回到阔别已久的家中成婚。经过冗长跋涉,永吉总算和由佳踏上了故乡的地盘。他的爸爸田村治(柄本明 饰)现担任当地黉舍交响乐团的批示,为人非常固执。违逆的宗子回家,必不成少要爆发一顿争持。所幸历经艰险,永吉还是熬到了举行婚礼的那一天。恰恰就在喜庆的最飞腾,老父亲忽然病倒了……
  不经意间,每小我都要面临生离死别。

获奖情况  

  第11届亚洲电影大奖(2017)
  最好女配角(提名) 前田敦子
  1. Video
  2. ID                                       : 1
  3. Format                                   : AVC
  4. Format/Info                              : Advanced Video Codec
  5. Format profile                           : [email protected]
  6. Format settings                          : CABAC / 4 Ref Frames
  7. Format settings, CABAC                   : Yes
  8. Format settings, Reference frames        : 4 frames
  9. Codec ID                                 : V_MPEG4/ISO/AVC
  10. Duration                                 : 2 h 4 min
  11. Bit rate                                 : 10.5 Mb/s
  12. Width                                    : 1 920 pixels
  13. Height                                   : 1 038 pixels
  14. Display aspect ratio                     : 1.85:1
  15. Frame rate mode                          : Constant
  16. Frame rate                               : 23.976 (24000/1001) FPS
  17. Color space                              : YUV
  18. Chroma subsampling                       : 4:2:0
  19. Bit depth                                : 8 bits
  20. Scan type                                : Progressive
  21. Bits/(Pixel*Frame)                       : 0.220
  22. Stream size                              : 9.18 GiB (94%)
  23. Writing library                          : x264 core 129 r2245+704+36 8e61944 tMod+MixAQ [[email protected]:2:0 X86_64]
  24. Encoding settings                        : cabac=1 / ref=4 / deblock=1:-3:-3 / analyse=0x3:0x133 / me=umh / subme=11 / psy=1 / fade_compensate=0.00 / psy_rd=1.05:0.10 / mixed_ref=1 / me_range=32 / chroma_me=1 / trellis=2 / 8x8dct=1 / cqm=0 / deadzone=21,11 / fast_pskip=0 / chroma_qp_offset=-3 / threads=12 / lookahead_threads=2 / sliced_threads=0 / nr=0 / decimate=0 / interlaced=0 / bluray_compat=0 / constrained_intra=0 / fgo=0 / bframes=10 / b_pyramid=2 / b_adapt=2 / b_bias=0 / direct=3 / weightb=1 / open_gop=0 / weightp=2 / keyint=250 / keyint_min=23 / scenecut=40 / intra_refresh=0 / rc=2pass / mbtree=0 / bitrate=10534 / ratetol=1.0 / qcomp=0.70 / qpmin=0 / qpmax=69 / qpstep=4 / cplxblur=20.0 / qblur=0.5 / ip_ratio=1.40 / pb_ratio=1.30 / aq=1 / aq-strength=0.90 / aq-sensitivity=10.00 / aq-ifactor=1.00 / aq-pfactor=1.00 / aq-bfactor=1.00 / aq2=0
  25. Language                                 : Japanese
  26. Default                                  : Yes
  27. Forced                                   : No

  28. Audio
  29. ID                                       : 2
  30. Format                                   : AC-3
  31. Format/Info                              : Audio Coding 3
  32. Commercial name                          : Dolby Digital
  33. Codec ID                                 : A_AC3
  34. Duration                                 : 2 h 4 min
  35. Bit rate mode                            : Constant
  36. Bit rate                                 : 640 kb/s
  37. Channel(s)                               : 6 channels
  38. Channel layout                           : L R C LFE Ls Rs
  39. Sampling rate                            : 48.0 kHz
  40. Frame rate                               : 31.250 FPS (1536 SPF)
  41. Bit depth                                : 16 bits
  42. Compression mode                         : Lossy
  43. Stream size                              : 571 MiB (6%)
  44. Language                                 : Japanese
  45. Service kind                             : Complete Main
  46. Default                                  : Yes
  47. Forced                                   : No

  48. Text #1
  49. ID                                       : 3
  50. Format                                   : UTF-8
  51. Codec ID                                 : S_TEXT/UTF8
  52. Codec ID/Info                            : UTF-8 Plain Text
  53. Duration                                 : 2 h 4 min
  54. Bit rate                                 : 20 b/s
  55. Count of elements                        : 997
  56. Stream size                              : 18.2 KiB (0%)
  57. Language                                 : English
  58. Default                                  : Yes
  59. Forced                                   : No

  60. Text #2
  61. ID                                       : 4
  62. Format                                   : ASS
  63. Codec ID                                 : S_TEXT/ASS
  64. Codec ID/Info                            : Advanced Sub Station Alpha
  65. Duration                                 : 2 h 0 min
  66. Bit rate                                 : 51 b/s
  67. Count of elements                        : 998
  68. Compression mode                         : Lossless
  69. Stream size                              : 45.1 KiB (0%)
  70. Language                                 : Chinese
  71. Default                                  : No
  72. Forced                                   : No

  73. Menu
  74. 00:00:00.000                             : en:00:00:00.000
  75. 00:07:43.671                             : en:00:07:43.671
  76. 00:12:47.391                             : en:00:12:47.391
  77. 00:18:53.173                             : en:00:18:53.173
  78. 00:25:02.626                             : en:00:25:02.626
  79. 00:29:13.960                             : en:00:29:13.960
  80. 00:35:09.440                             : en:00:35:09.440
  81. 00:40:36.851                             : en:00:40:36.851
  82. 00:45:17.214                             : en:00:45:17.214
  83. 00:52:06.373                             : en:00:52:06.373
  84. 00:58:35.094                             : en:00:58:35.094
  85. 01:03:51.285                             : en:01:03:51.285
  86. 01:09:56.483                             : en:01:09:56.483
  87. 01:16:28.125                             : en:01:16:28.125
  88. 01:25:45.849                             : en:01:25:45.849
  89. 01:30:45.773                             : en:01:30:45.773
  90. 01:35:15.334                             : en:01:35:15.334
  91. 01:43:42.466                             : en:01:43:42.466
  92. 01:50:11.187                             : en:01:50:11.187
  93. 01:57:27.665                             : en:01:57:27.665
  94. 02:04:47.480                             : en:02:04:47.480
复制代码

莫西干回到故乡 The.Mohican.Comes.Home.2016.JAPANESE.1080p.BluRay.x264-iKiW 9.75GB-2.png 莫西干回到故乡 The.Mohican.Comes.Home.2016.JAPANESE.1080p.BluRay.x264-iKiW 9.75GB-3.png 莫西干回到故乡 The.Mohican.Comes.Home.2016.JAPANESE.1080p.BluRay.x264-iKiW 9.75GB-4.png






回复

使用道具 举报

懒得打字嘛,点击右侧快捷回复 【右侧内容,后台自定义】
您需要登录后才可以回帖 登录 | 立即加入

本版积分规则

Archiver|小黑屋| 蓝光电影网 |网站地图

Copyright © 2021 Comsenz Inc. Powered by 蓝光电影网

蓝光电影网

本站内容由用户自主分享和转载自互联网,转载目的在于传递更多信息,并不代表本网赞同其观点和对其真实性负责。

如有侵权、违反国家法律政策行为,请联系我们,我们会第一时间及时清除和处理!

举报反馈邮箱:[email protected]

快速回复 返回顶部 返回列表