找回密码

蓝光电影网

查看: 273|回复: 4

[剧情] 最后的食谱 麒麟之舌的记忆 The.Last.Recipe.2017.JAPANESE.1080p.BluRay.x264-iKiW 9.75GB

[复制链接]
蓝光币
382
发表于 2020-1-22 15:17:16 | 显示全部楼层 |阅读模式
最初的食谱 麒麟之舌的记忆 The.Last.Recipe.2017.JAPANESE.1080p.BluRay.x264-iKiW 9.75GB-1.png

译  名 最初的食谱 麒麟之舌的记忆 / Last Recipe: Memory of Giraffe's Tongue / The Last Recipe / 具有麒麟之舌的汉子 / 最初的食谱:麒麟之舌(台)
片  名 ラストレシピ 麒麟の舌の記憶
年  代 2017
产  地 日本
类  别 剧情
语  言 日语
上映日期 2017-11-03(日本)
IMDb评分  7.1/10 from 488 users
IMDb链接  https://www.imdb.com/title/tt5894876
豆瓣评分 7.3/10 from 6134 users
豆瓣链接 https://movie.douban.com/subject/26837951/
片  长 125分钟
导  演 泷田洋二郎 Y?jir? Takita
编  剧 林民夫 Tamio Hayashi / 田中经一
主  演 二宫和也 Kazunari Ninomiya
       西岛秀俊 Hidetoshi Nishijima
       宫崎葵 Aoi Miyazaki
       绫野刚 G? Ayano
       西畑大吾 Daigo Nishihata
       竹野内丰 Yutaka Takenouchi
       笈田吉 Yoshi Oida
       伊川东吾 Togo Igawa
       小野寺晃良 Akira Onodera


标  签 日本 | 美食 | 日本电影 | 二宫和也 | 二宮和也 | 2017 | 西岛秀俊 | 日影

简  介  

  影片改编自人气小说,集结了西岛秀俊、宫崎葵、绫野刚、竹野内丰等奢华声势。二宫与西岛都饰演了分歧时代,具有绝对味觉“麒麟舌”的厨师。电影将于明年秋天在日本上映。
  1. Video
  2. ID                                       : 1
  3. Format                                   : AVC
  4. Format/Info                              : Advanced Video Codec
  5. Format profile                           : [email protected]
  6. Format settings                          : CABAC / 5 Ref Frames
  7. Format settings, CABAC                   : Yes
  8. Format settings, Reference frames        : 5 frames
  9. Codec ID                                 : V_MPEG4/ISO/AVC
  10. Duration                                 : 2 h 5 min
  11. Bit rate                                 : 10.5 Mb/s
  12. Width                                    : 1 920 pixels
  13. Height                                   : 802 pixels
  14. Display aspect ratio                     : 2.40:1
  15. Frame rate mode                          : Constant
  16. Frame rate                               : 23.976 (24000/1001) FPS
  17. Color space                              : YUV
  18. Chroma subsampling                       : 4:2:0
  19. Bit depth                                : 8 bits
  20. Scan type                                : Progressive
  21. Bits/(Pixel*Frame)                       : 0.283
  22. Stream size                              : 9.18 GiB (94%)
  23. Writing library                          : x264 core 129 r2245+704+36 8e61944 tMod+MixAQ [[email protected]:2:0 X86_64]
  24. Encoding settings                        : cabac=1 / ref=5 / deblock=1:-3:-3 / analyse=0x3:0x133 / me=umh / subme=11 / psy=1 / fade_compensate=0.00 / psy_rd=1.05:0.10 / mixed_ref=1 / me_range=64 / chroma_me=1 / trellis=2 / 8x8dct=1 / cqm=0 / deadzone=21,11 / fast_pskip=0 / chroma_qp_offset=-3 / threads=18 / lookahead_threads=3 / sliced_threads=0 / nr=0 / decimate=0 / interlaced=0 / bluray_compat=0 / constrained_intra=0 / fgo=0 / bframes=10 / b_pyramid=2 / b_adapt=2 / b_bias=0 / direct=3 / weightb=1 / open_gop=0 / weightp=2 / keyint=250 / keyint_min=23 / scenecut=40 / intra_refresh=0 / rc=2pass / mbtree=0 / bitrate=10454 / ratetol=1.0 / qcomp=0.70 / qpmin=0 / qpmax=69 / qpstep=4 / cplxblur=20.0 / qblur=0.5 / ip_ratio=1.40 / pb_ratio=1.30 / aq=1 / aq-strength=0.90 / aq-sensitivity=10.00 / aq-ifactor=1.00 / aq-pfactor=1.00 / aq-bfactor=1.00 / aq2=0
  25. Language                                 : Chinese
  26. Default                                  : Yes
  27. Forced                                   : No

  28. Audio
  29. ID                                       : 2
  30. Format                                   : AC-3
  31. Format/Info                              : Audio Coding 3
  32. Commercial name                          : Dolby Digital
  33. Codec ID                                 : A_AC3
  34. Duration                                 : 2 h 5 min
  35. Bit rate mode                            : Constant
  36. Bit rate                                 : 640 kb/s
  37. Channel(s)                               : 6 channels
  38. Channel layout                           : L R C LFE Ls Rs
  39. Sampling rate                            : 48.0 kHz
  40. Frame rate                               : 31.250 FPS (1536 SPF)
  41. Bit depth                                : 16 bits
  42. Compression mode                         : Lossy
  43. Stream size                              : 576 MiB (6%)
  44. Language                                 : Japanese
  45. Service kind                             : Complete Main
  46. Default                                  : Yes
  47. Forced                                   : No

  48. Text #1
  49. ID                                       : 3
  50. Format                                   : UTF-8
  51. Codec ID                                 : S_TEXT/UTF8
  52. Codec ID/Info                            : UTF-8 Plain Text
  53. Duration                                 : 2 h 2 min
  54. Bit rate                                 : 44 b/s
  55. Count of elements                        : 1272
  56. Stream size                              : 39.5 KiB (0%)
  57. Language                                 : English
  58. Default                                  : Yes
  59. Forced                                   : No

  60. Text #2
  61. ID                                       : 4
  62. Format                                   : ASS
  63. Codec ID                                 : S_TEXT/ASS
  64. Codec ID/Info                            : Advanced Sub Station Alpha
  65. Duration                                 : 2 h 4 min
  66. Bit rate                                 : 74 b/s
  67. Count of elements                        : 1276
  68. Compression mode                         : Lossless
  69. Stream size                              : 68.0 KiB (0%)
  70. Language                                 : Chinese
  71. Default                                  : No
  72. Forced                                   : No

  73. Menu
  74. 00:00:00.000                             : en:00:00:00.000
  75. 00:10:31.547                             : en:00:10:31.547
  76. 00:18:08.837                             : en:00:18:08.837
  77. 00:23:36.706                             : en:00:23:36.706
  78. 00:40:34.348                             : en:00:40:34.348
  79. 00:52:38.864                             : en:00:52:38.864
  80. 01:05:21.334                             : en:01:05:21.334
  81. 01:21:48.987                             : en:01:21:48.987
  82. 01:33:27.268                             : en:01:33:27.268
  83. 01:39:47.982                             : en:01:39:47.982
  84. 01:47:29.109                             : en:01:47:29.109
  85. 01:59:21.654                             : en:01:59:21.654
复制代码

最初的食谱 麒麟之舌的记忆 The.Last.Recipe.2017.JAPANESE.1080p.BluRay.x264-iKiW 9.75GB-2.png 最初的食谱 麒麟之舌的记忆 The.Last.Recipe.2017.JAPANESE.1080p.BluRay.x264-iKiW 9.75GB-3.png 最初的食谱 麒麟之舌的记忆 The.Last.Recipe.2017.JAPANESE.1080p.BluRay.x264-iKiW 9.75GB-4.png






回复

使用道具 举报

懒得打字嘛,点击右侧快捷回复 【右侧内容,后台自定义】
您需要登录后才可以回帖 登录 | 立即加入

本版积分规则

Archiver|小黑屋| 蓝光电影网 |网站地图

Copyright © 2021 Comsenz Inc. Powered by 蓝光电影网

蓝光电影网

本站内容由用户自主分享和转载自互联网,转载目的在于传递更多信息,并不代表本网赞同其观点和对其真实性负责。

如有侵权、违反国家法律政策行为,请联系我们,我们会第一时间及时清除和处理!

举报反馈邮箱:[email protected]

快速回复 返回顶部 返回列表