找回密码

蓝光电影网

查看: 1151|回复: 6

[剧情] 蜜桃女孩 Peach.Girl.2017.JAPANESE.1080p.BluRay.x264.DTS-iKiW 9.75GB

[复制链接]
蓝光币
382
发表于 2020-1-22 15:19:28 | 显示全部楼层 |阅读模式
蜜桃女孩 Peach.Girl.2017.JAPANESE.1080p.BluRay.x264.DTS-iKiW 9.75GB-1.png

译  名 蜜桃女孩 / Peach Girl
片  名 ピーチガール
年  代 2017
产  地 日本
类  别 剧情 / 笑剧 / 恋爱
语  言 日语
上映日期 2017-05-20(日本)
IMDb评分  6.2/10 from 342 users
IMDb链接  https://www.imdb.com/title/tt5593416
豆瓣评分 4.4/10 from 2500 users
豆瓣链接 https://movie.douban.com/subject/26761228/
片  长 116分钟
导  演 神徳幸治 Koji Shintoku
编  剧 上田美和 / 山冈润平 Junpei Yamaoka
主  演 山本美月 Mizuki Yamamoto
       伊野尾慧 Kei Inoo
       真剑佑 Mackenyu
       永野芽郁 Mei Nagano


标  签 日本 | 日本电影 | 恋爱 | 2017 | 漫改 | 日影 | 伊野尾慧 | 山本美月

简  介  

  安达桃(山本美月 饰)虽然有着一副不良少女的表面,但心里里却是一个传统而又天真的好姑娘。柏木沙绘(永野芽郁 饰)是小桃青梅竹马的玩伴,从小打到,只如果小桃喜好的工具,沙绘总是要横刀夺爱,对于沙绘的蛮横和无私,善良的小桃总是挑选容忍和忍让,这让沙绘的行为愈发张狂起来。
  小桃一向冷静的喜好着同级生东寺森一矢(真剑佑 饰),可是她挑选将这份豪情冷静埋藏在心底,一是感觉一矢绝对不会喜好像自己一样的女生,二是惧怕沙绘晓得自己的心机。冈安浬(伊野尾慧 饰)是黉舍里大受女生接待的校草级人物,希奇的是,他却独独对小桃发生了爱好。
  1. Video
  2. ID                                       : 1
  3. Format                                   : AVC
  4. Format/Info                              : Advanced Video Codec
  5. Format profile                           : [email protected]
  6. Format settings                          : CABAC / 4 Ref Frames
  7. Format settings, CABAC                   : Yes
  8. Format settings, Reference frames        : 4 frames
  9. Codec ID                                 : V_MPEG4/ISO/AVC
  10. Duration                                 : 1 h 56 min
  11. Bit rate                                 : 10.5 Mb/s
  12. Width                                    : 1 920 pixels
  13. Height                                   : 1 036 pixels
  14. Display aspect ratio                     : 1.85:1
  15. Frame rate mode                          : Constant
  16. Frame rate                               : 23.976 (24000/1001) FPS
  17. Color space                              : YUV
  18. Chroma subsampling                       : 4:2:0
  19. Bit depth                                : 8 bits
  20. Scan type                                : Progressive
  21. Bits/(Pixel*Frame)                       : 0.219
  22. Stream size                              : 8.51 GiB (87%)
  23. Writing library                          : x264 core 129 r2245+704+36 8e61944 tMod+MixAQ [[email protected]:2:0 X86_64]
  24. Encoding settings                        : cabac=1 / ref=4 / deblock=1:-3:-3 / analyse=0x3:0x133 / me=umh / subme=11 / psy=1 / fade_compensate=0.00 / psy_rd=1.05:0.10 / mixed_ref=1 / me_range=64 / chroma_me=1 / trellis=2 / 8x8dct=1 / cqm=0 / deadzone=21,11 / fast_pskip=0 / chroma_qp_offset=-3 / threads=18 / lookahead_threads=3 / sliced_threads=0 / nr=0 / decimate=0 / interlaced=0 / bluray_compat=0 / constrained_intra=0 / fgo=0 / bframes=10 / b_pyramid=2 / b_adapt=2 / b_bias=0 / direct=3 / weightb=1 / open_gop=0 / weightp=2 / keyint=250 / keyint_min=23 / scenecut=40 / intra_refresh=0 / rc=2pass / mbtree=0 / bitrate=10468 / ratetol=1.0 / qcomp=0.70 / qpmin=0 / qpmax=69 / qpstep=4 / cplxblur=20.0 / qblur=0.5 / ip_ratio=1.40 / pb_ratio=1.30 / aq=1 / aq-strength=0.90 / aq-sensitivity=10.00 / aq-ifactor=1.00 / aq-pfactor=1.00 / aq-bfactor=1.00 / aq2=0
  25. Language                                 : Japanese
  26. Default                                  : Yes
  27. Forced                                   : No

  28. Audio
  29. ID                                       : 2
  30. Format                                   : DTS
  31. Format/Info                              : Digital Theater Systems
  32. Codec ID                                 : A_DTS
  33. Duration                                 : 1 h 56 min
  34. Bit rate mode                            : Constant
  35. Bit rate                                 : 1 509 kb/s
  36. Channel(s)                               : 6 channels
  37. Channel layout                           : C L R Ls Rs LFE
  38. Sampling rate                            : 48.0 kHz
  39. Frame rate                               : 93.750 FPS (512 SPF)
  40. Bit depth                                : 16 bits
  41. Compression mode                         : Lossy
  42. Stream size                              : 1.23 GiB (13%)
  43. Language                                 : Japanese
  44. Default                                  : Yes
  45. Forced                                   : No

  46. Text #1
  47. ID                                       : 3
  48. Format                                   : UTF-8
  49. Codec ID                                 : S_TEXT/UTF8
  50. Codec ID/Info                            : UTF-8 Plain Text
  51. Duration                                 : 1 h 55 min
  52. Bit rate                                 : 41 b/s
  53. Count of elements                        : 1358
  54. Stream size                              : 35.2 KiB (0%)
  55. Language                                 : English
  56. Default                                  : Yes
  57. Forced                                   : No

  58. Text #2
  59. ID                                       : 4
  60. Format                                   : ASS
  61. Codec ID                                 : S_TEXT/ASS
  62. Codec ID/Info                            : Advanced Sub Station Alpha
  63. Duration                                 : 1 h 56 min
  64. Bit rate                                 : 73 b/s
  65. Count of elements                        : 1327
  66. Compression mode                         : Lossless
  67. Stream size                              : 62.3 KiB (0%)
  68. Language                                 : Chinese
  69. Default                                  : No
  70. Forced                                   : No

  71. Menu
  72. 00:00:00.000                             : en:00:00:00.000
  73. 00:12:59.695                             : en:00:12:59.695
  74. 00:33:35.304                             : en:00:33:35.304
  75. 00:48:54.056                             : en:00:48:54.056
  76. 00:59:17.512                             : en:00:59:17.512
  77. 01:16:25.664                             : en:01:16:25.664
  78. 01:28:43.609                             : en:01:28:43.609
  79. 01:38:55.054                             : en:01:38:55.054
  80. 01:56:24.644                             : en:01:56:24.644
复制代码

蜜桃女孩 Peach.Girl.2017.JAPANESE.1080p.BluRay.x264.DTS-iKiW 9.75GB-2.png 蜜桃女孩 Peach.Girl.2017.JAPANESE.1080p.BluRay.x264.DTS-iKiW 9.75GB-3.png 蜜桃女孩 Peach.Girl.2017.JAPANESE.1080p.BluRay.x264.DTS-iKiW 9.75GB-1.png






回复

使用道具 举报

懒得打字嘛,点击右侧快捷回复 【右侧内容,后台自定义】
您需要登录后才可以回帖 登录 | 立即加入

本版积分规则

Archiver|小黑屋| 蓝光电影网 |网站地图

Copyright © 2021 Comsenz Inc. Powered by 蓝光电影网

蓝光电影网

本站内容由用户自主分享和转载自互联网,转载目的在于传递更多信息,并不代表本网赞同其观点和对其真实性负责。

如有侵权、违反国家法律政策行为,请联系我们,我们会第一时间及时清除和处理!

举报反馈邮箱:[email protected]

快速回复 返回顶部 返回列表