找回密码

蓝光电影网

查看: 499|回复: 4

[剧情] 青夏:恋上你的30日 Blue.Summer.2018.JAPANESE.1080p.BluRay.x264.DTS-iKiW 9.75GB

[复制链接]
蓝光币
382
发表于 2020-1-22 15:22:52 | 显示全部楼层 |阅读模式
青夏:恋上你的30日 Blue.Summer.2018.JAPANESE.1080p.BluRay.x264.DTS-iKiW 9.75GB-1.png

译  名 青夏:恋上你的30日 / Blue Summer: The 30 Days I Loved You / 青夏 Ao-Natsu / 青夏:与你相恋的30天 / 青夏:恋上你的30日(港)
片  名 青夏 きみに恋した30日
年  代 2018
产  地 日本
类  别 剧情 / 恋爱 / 冒险
语  言 日语
上映日期 2018-08-01(日本)
IMDb评分  6.1/10 from 33 users
IMDb链接  https://www.imdb.com/title/tt8571578
豆瓣评分 5.6/10 from 537 users
豆瓣链接 https://movie.douban.com/subject/27611499/
片  长 113分钟
导  演 古泽健 Takeshi Furusawa
编  剧 持地佑幼子 Yukiko Mochiji
主  演 葵若菜 Wakana Aoi
       佐野勇斗 Sano Hayato
       古畑星夏 Seika Furuhata
       岐洲匠 Kizu Takumi
       久间田琳加 Rinka Kumada
       水石亚飞梦 Atomu Mizuishi
       秋田汐梨 Shiori Akita
       志村玲於 Reo Shimura
       雾岛丽香 Reika Kirishima
       南出凌嘉 Ryoka Minamide
       白川和子 Kazuko Shirakawa
       桥本润 Jun Hashimoto


标  签 恋爱 | 日本 | 青春 | 2018 | 校园 | 漫画改编 | 漫画小说真人版 | 剧情

简  介  

  影片报告平常在城市里生活的高中女心理绪(葵若菜)到乡下过暑假,和当地帅气美男吟藏(佐野勇斗)之间的恋爱故事
  1. Video
  2. ID                                       : 1
  3. Format                                   : AVC
  4. Format/Info                              : Advanced Video Codec
  5. Format profile                           : [email protected]
  6. Format settings                          : CABAC / 4 Ref Frames
  7. Format settings, CABAC                   : Yes
  8. Format settings, Reference frames        : 4 frames
  9. Codec ID                                 : V_MPEG4/ISO/AVC
  10. Duration                                 : 1 h 54 min
  11. Bit rate                                 : 10.7 Mb/s
  12. Width                                    : 1 920 pixels
  13. Height                                   : 1 036 pixels
  14. Display aspect ratio                     : 1.85:1
  15. Frame rate mode                          : Constant
  16. Frame rate                               : 23.976 (24000/1001) FPS
  17. Color space                              : YUV
  18. Chroma subsampling                       : 4:2:0
  19. Bit depth                                : 8 bits
  20. Scan type                                : Progressive
  21. Bits/(Pixel*Frame)                       : 0.225
  22. Stream size                              : 8.55 GiB (88%)
  23. Writing library                          : x264 core 129 r2245+704+36 8e61944 tMod+MixAQ [[email protected]:2:0 X86_64]
  24. Encoding settings                        : cabac=1 / ref=4 / deblock=1:-1:-1 / analyse=0x3:0x133 / me=umh / subme=11 / psy=1 / fade_compensate=0.00 / psy_rd=1.05:0.10 / mixed_ref=1 / me_range=64 / chroma_me=1 / trellis=2 / 8x8dct=1 / cqm=0 / deadzone=21,11 / fast_pskip=0 / chroma_qp_offset=-3 / threads=18 / lookahead_threads=3 / sliced_threads=0 / nr=0 / decimate=0 / interlaced=0 / bluray_compat=0 / constrained_intra=0 / fgo=0 / bframes=10 / b_pyramid=2 / b_adapt=2 / b_bias=0 / direct=3 / weightb=1 / open_gop=0 / weightp=2 / keyint=250 / keyint_min=23 / scenecut=40 / intra_refresh=0 / rc=2pass / mbtree=0 / bitrate=10734 / ratetol=1.0 / qcomp=0.70 / qpmin=0 / qpmax=69 / qpstep=4 / cplxblur=20.0 / qblur=0.5 / ip_ratio=1.40 / pb_ratio=1.30 / aq=1 / aq-strength=0.90 / aq-sensitivity=10.00 / aq-ifactor=1.00 / aq-pfactor=1.00 / aq-bfactor=1.00 / aq2=0
  25. Language                                 : Japanese
  26. Default                                  : Yes
  27. Forced                                   : No

  28. Audio
  29. ID                                       : 2
  30. Format                                   : DTS
  31. Format/Info                              : Digital Theater Systems
  32. Codec ID                                 : A_DTS
  33. Duration                                 : 1 h 54 min
  34. Bit rate mode                            : Constant
  35. Bit rate                                 : 1 509 kb/s
  36. Channel(s)                               : 6 channels
  37. Channel layout                           : C L R Ls Rs LFE
  38. Sampling rate                            : 48.0 kHz
  39. Frame rate                               : 93.750 FPS (512 SPF)
  40. Bit depth                                : 16 bits
  41. Compression mode                         : Lossy
  42. Stream size                              : 1.20 GiB (12%)
  43. Language                                 : Japanese
  44. Default                                  : Yes
  45. Forced                                   : No

  46. Text #1
  47. ID                                       : 3
  48. Format                                   : UTF-8
  49. Codec ID                                 : S_TEXT/UTF8
  50. Codec ID/Info                            : UTF-8 Plain Text
  51. Duration                                 : 1 h 49 min
  52. Bit rate                                 : 35 b/s
  53. Count of elements                        : 1160
  54. Stream size                              : 28.9 KiB (0%)
  55. Language                                 : English
  56. Default                                  : Yes
  57. Forced                                   : No

  58. Text #2
  59. ID                                       : 4
  60. Format                                   : UTF-8
  61. Codec ID                                 : S_TEXT/UTF8
  62. Codec ID/Info                            : UTF-8 Plain Text
  63. Duration                                 : 1 h 53 min
  64. Bit rate                                 : 30 b/s
  65. Count of elements                        : 1319
  66. Stream size                              : 25.3 KiB (0%)
  67. Title                                    : Simplified
  68. Language                                 : Chinese
  69. Default                                  : No
  70. Forced                                   : No

  71. Text #3
  72. ID                                       : 5
  73. Format                                   : UTF-8
  74. Codec ID                                 : S_TEXT/UTF8
  75. Codec ID/Info                            : UTF-8 Plain Text
  76. Duration                                 : 1 h 53 min
  77. Bit rate                                 : 30 b/s
  78. Count of elements                        : 1319
  79. Stream size                              : 25.3 KiB (0%)
  80. Title                                    : Traditional
  81. Language                                 : Chinese
  82. Default                                  : No
  83. Forced                                   : No

  84. Menu
  85. 00:00:00.000                             : en:第 01 章
  86. 00:07:04.549                             : en:第 02 章
  87. 00:13:07.703                             : en:第 03 章
  88. 00:18:18.472                             : en:第 04 章
  89. 00:24:41.188                             : en:第 05 章
  90. 00:32:45.171                             : en:第 06 章
  91. 00:40:54.994                             : en:第 07 章
  92. 00:51:03.351                             : en:第 08 章
  93. 01:00:30.585                             : en:第 09 章
  94. 01:09:30.541                             : en:第 10 章
  95. 01:13:59.643                             : en:第 11 章
  96. 01:18:53.645                             : en:第 12 章
  97. 01:23:08.108                             : en:第 13 章
  98. 01:33:58.049                             : en:第 14 章
  99. 01:40:25.227                             : en:第 15 章
  100. 01:50:16.443                             : en:第 16 章
复制代码

青夏:恋上你的30日 Blue.Summer.2018.JAPANESE.1080p.BluRay.x264.DTS-iKiW 9.75GB-2.png 青夏:恋上你的30日 Blue.Summer.2018.JAPANESE.1080p.BluRay.x264.DTS-iKiW 9.75GB-3.png 青夏:恋上你的30日 Blue.Summer.2018.JAPANESE.1080p.BluRay.x264.DTS-iKiW 9.75GB-4.png






回复

使用道具 举报

蓝光币
0
发表于 2021-7-13 18:24:41 | 显示全部楼层
谢谢楼主分享!!!
回复 支持 反对

使用道具 举报

懒得打字嘛,点击右侧快捷回复 【右侧内容,后台自定义】
您需要登录后才可以回帖 登录 | 立即加入

本版积分规则

Archiver|小黑屋| 蓝光电影网 |网站地图

Copyright © 2021 Comsenz Inc. Powered by 蓝光电影网

蓝光电影网

本站内容由用户自主分享和转载自互联网,转载目的在于传递更多信息,并不代表本网赞同其观点和对其真实性负责。

如有侵权、违反国家法律政策行为,请联系我们,我们会第一时间及时清除和处理!

举报反馈邮箱:[email protected]

快速回复 返回顶部 返回列表