找回密码

蓝光电影网

查看: 654|回复: 1

[剧情] 铁鹰战士3死亡陷阱/铁鹰战士III死亡陷井 Aces.Iron.Eagle.III.1992.1080p.BluRay.x264.DTS-FGT 8.99GB

[复制链接]
蓝光币
426
发表于 2020-1-22 15:24:30 | 显示全部楼层 |阅读模式
铁鹰战士3灭亡圈套/铁鹰战士III灭亡陷井 Aces.Iron.Eagle.III.1992.1080p.BluRay.x264.DTS-FGT 8.99GB-1.png

译  名 铁鹰战士3灭亡圈套 / 铁鹰战士III灭亡陷井
片  名 Aces: Iron Eagle III
年  代 1992
产  地 英国 / 美国
类  别 剧情 / 行动
语  言 英语
上映日期 1992-01-09
IMDb评分  3.7/10 from 2591 users
IMDb链接  https://www.imdb.com/title/tt0103617
豆瓣评分 0/10 from 0 users
豆瓣链接 https://movie.douban.com/subject/1294622/
片  长 98 分钟
导  演 约翰·格兰 John Glen
编  剧 Kevin Elders / 西德尼·J·弗里尔 Sidney J. Furie
主  演 小路易斯·格赛特 Louis Gossett Jr.
       Rachel McLish
       豪斯特·巴奇霍兹 Horst Buchholz
       克里斯托弗·卡赞诺夫 Christopher Cazenove
       千叶真一 Sonny Chiba
       米奇·瑞恩 Mitch Ryan


标  签 战争 | 我想看这部电影 | 行动 | P-38 | 特务 | 英国 | 美国电影 | 美国

简  介  

  暂无相关剧情先容
  1. Video
  2. ID                                       : 1
  3. Format                                   : AVC
  4. Format/Info                              : Advanced Video Codec
  5. Format profile                           : [email protected]
  6. Format settings                          : CABAC / 4 Ref Frames
  7. Format settings, CABAC                   : Yes
  8. Format settings, Reference frames        : 4 frames
  9. Codec ID                                 : V_MPEG4/ISO/AVC
  10. Duration                                 : 1 h 38 min
  11. Bit rate                                 : 11.5 Mb/s
  12. Width                                    : 1 920 pixels
  13. Height                                   : 1 080 pixels
  14. Display aspect ratio                     : 16:9
  15. Frame rate mode                          : Constant
  16. Frame rate                               : 23.976 (24000/1001) FPS
  17. Color space                              : YUV
  18. Chroma subsampling                       : 4:2:0
  19. Bit depth                                : 8 bits
  20. Scan type                                : Progressive
  21. Bits/(Pixel*Frame)                       : 0.231
  22. Stream size                              : 7.95 GiB (88%)
  23. Title                                    : Aces.Iron.Eagle.III.1992.1080p.BluRay.x264.DTS-FGT
  24. Writing library                          : x264 core 148 r2748 97eaef2
  25. Encoding settings                        : cabac=1 / ref=4 / deblock=1:-2:-2 / analyse=0x3:0x113 / me=umh / subme=9 / psy=1 / psy_rd=1.00:0.15 / mixed_ref=1 / me_range=16 / chroma_me=1 / trellis=2 / 8x8dct=1 / cqm=0 / deadzone=21,11 / fast_pskip=1 / chroma_qp_offset=-3 / threads=72 / lookahead_threads=3 / sliced_threads=0 / nr=0 / decimate=1 / interlaced=0 / bluray_compat=0 / constrained_intra=0 / bframes=3 / b_pyramid=2 / b_adapt=1 / b_bias=0 / direct=3 / weightb=1 / open_gop=0 / weightp=2 / keyint=250 / keyint_min=25 / scenecut=40 / intra_refresh=0 / rc_lookahead=50 / rc=2pass / mbtree=1 / bitrate=11500 / ratetol=1.0 / qcomp=0.60 / qpmin=0 / qpmax=69 / qpstep=4 / cplxblur=20.0 / qblur=0.5 / vbv_maxrate=31250 / vbv_bufsize=31250 / nal_hrd=none / filler=0 / ip_ratio=1.40 / aq=1:1.00
  26. Language                                 : English
  27. Default                                  : Yes
  28. Forced                                   : No

  29. Audio
  30. ID                                       : 2
  31. Format                                   : DTS
  32. Format/Info                              : Digital Theater Systems
  33. Codec ID                                 : A_DTS
  34. Duration                                 : 1 h 38 min
  35. Bit rate mode                            : Constant
  36. Bit rate                                 : 1 509 kb/s
  37. Channel(s)                               : 2 channels
  38. Channel layout                           : L R
  39. Sampling rate                            : 48.0 kHz
  40. Frame rate                               : 93.750 FPS (512 SPF)
  41. Bit depth                                : 16 bits
  42. Compression mode                         : Lossy
  43. Stream size                              : 1.04 GiB (12%)
  44. Title                                    : Aces.Iron.Eagle.III.1992.1080p.BluRay.x264.DTS-FGT
  45. Language                                 : English
  46. Default                                  : Yes
  47. Forced                                   : No

  48. Text
  49. ID                                       : 3
  50. Format                                   : UTF-8
  51. Codec ID                                 : S_TEXT/UTF8
  52. Codec ID/Info                            : UTF-8 Plain Text
  53. Duration                                 : 1 h 32 min
  54. Bit rate                                 : 45 b/s
  55. Count of elements                        : 1072
  56. Stream size                              : 31.1 KiB (0%)
  57. Language                                 : English
  58. Default                                  : Yes
  59. Forced                                   : No

  60. Menu
  61. 00:00:00.000                             : en:Chapter 00
  62. 00:11:17.843                             : en:Chapter 01
  63. 00:23:33.328                             : en:Chapter 02
  64. 00:33:36.431                             : en:Chapter 03
  65. 00:48:39.625                             : en:Chapter 04
  66. 01:02:44.343                             : en:Chapter 05
  67. 01:15:38.242                             : en:Chapter 06
  68. 01:30:58.828                             : en:Chapter 07
复制代码

铁鹰战士3灭亡圈套/铁鹰战士III灭亡陷井 Aces.Iron.Eagle.III.1992.1080p.BluRay.x264.DTS-FGT 8.99GB-1.png 铁鹰战士3灭亡圈套/铁鹰战士III灭亡陷井 Aces.Iron.Eagle.III.1992.1080p.BluRay.x264.DTS-FGT 8.99GB-3.png 铁鹰战士3灭亡圈套/铁鹰战士III灭亡陷井 Aces.Iron.Eagle.III.1992.1080p.BluRay.x264.DTS-FGT 8.99GB-2.png






回复

使用道具 举报

蓝光币
623
发表于 2020-1-22 18:14:51 | 显示全部楼层
谢谢楼主无私分享。
回复 支持 反对

使用道具 举报

懒得打字嘛,点击右侧快捷回复 【右侧内容,后台自定义】
您需要登录后才可以回帖 登录 | 立即加入

本版积分规则

Archiver|小黑屋| 蓝光电影网 |网站地图

Copyright © 2021 Comsenz Inc. Powered by 蓝光电影网

蓝光电影网

本站内容由用户自主分享和转载自互联网,转载目的在于传递更多信息,并不代表本网赞同其观点和对其真实性负责。

如有侵权、违反国家法律政策行为,请联系我们,我们会第一时间及时清除和处理!

举报反馈邮箱:[email protected]

快速回复 返回顶部 返回列表