找回密码

蓝光电影网

查看: 619|回复: 8

[喜剧] 财叔之横扫千军 The.Raid.1991.CHINESE.1080p.BluRay.x264-PTer 8.72GB

[复制链接]
蓝光币
426
发表于 2020-1-22 15:26:13 | 显示全部楼层 |阅读模式
财叔之风卷残云 The.Raid.1991.CHINESE.1080p.BluRay.x264-PTer 8.72GB-1.png

译  名 The Raid / 横扫全国(台)
片  名 财叔之风卷残云
年  代 1991
产  地 中国香港
类  别 笑剧 / 行动 / 恋爱 / 战争 / 冒险
语  言 粤语
上映日期 1991-03-28
IMDb评分  6.0/10 from 107 users
IMDb链接  https://www.imdb.com/title/tt0101535
豆瓣评分 6.4/10 from 1446 users
豆瓣链接 https://movie.douban.com/subject/1296062/
片  长 100分钟(香港)
导  演 徐克 / 程小东
编  剧 徐克 / 阮继志
主  演 石天
       梁家辉
       张学友
       元奎
       朱江
       袁洁莹
       高丽虹


标  签 徐克 | 香港 | 笑剧 | 香港电影 | 张学友 | 梁家辉 | 行动 | 程小东

简  介  

  民国初年,清末代天子溥仪受日本人控制,在北方建立伪满洲政府,日人板垣正及川岛芳了建立毒气基地,肆虐华人。
  财财会经从戎,又行过医,一日受土着所托到森林救人,途中惊险百出,抵步时发觉本来是一群受毒气所害的兵士,财叔极力急救,但其团长不治,临终前将抗敌大任交与孟大海,财叔报国心切,欲当兵而见拒。
  财叔潜入皇宫,假扮厨子,重遇孟大海等人,他们的目标是寻觅长江一号天凤,探取毒气基地的舆图,但行动被板垣正及川岛芳子所悉,因而财叔及天凤等人流亡他方,途中财叔救回兰女。
  一干人等鸠集气力,预备大举攻打毒气基地,多番剧烈战役,最初成功。
  1. Video
  2. ID                                       : 1
  3. Format                                   : AVC
  4. Format/Info                              : Advanced Video Codec
  5. Format profile                           : [email protected]
  6. Format settings                          : CABAC / 4 Ref Frames
  7. Format settings, CABAC                   : Yes
  8. Format settings, Reference frames        : 4 frames
  9. Codec ID                                 : V_MPEG4/ISO/AVC
  10. Duration                                 : 1 h 39 min
  11. Bit rate                                 : 11.5 Mb/s
  12. Width                                    : 1 920 pixels
  13. Height                                   : 1 080 pixels
  14. Display aspect ratio                     : 16:9
  15. Frame rate mode                          : Constant
  16. Frame rate                               : 24.000 FPS
  17. Color space                              : YUV
  18. Chroma subsampling                       : 4:2:0
  19. Bit depth                                : 8 bits
  20. Scan type                                : Progressive
  21. Bits/(Pixel*Frame)                       : 0.231
  22. Stream size                              : 8.00 GiB (92%)
  23. Writing library                          : x264 core 158 r2984 3759fcb
  24. Encoding settings                        : cabac=1 / ref=4 / deblock=1:-3:-3 / analyse=0x3:0x133 / me=umh / subme=11 / psy=1 / psy_rd=1.02:0.00 / mixed_ref=1 / me_range=32 / chroma_me=1 / trellis=2 / 8x8dct=1 / cqm=0 / deadzone=21,11 / fast_pskip=0 / chroma_qp_offset=-2 / threads=34 / lookahead_threads=5 / sliced_threads=0 / nr=0 / decimate=0 / interlaced=0 / bluray_compat=0 / constrained_intra=0 / bframes=8 / b_pyramid=2 / b_adapt=2 / b_bias=0 / direct=3 / weightb=1 / open_gop=0 / weightp=2 / keyint=250 / keyint_min=24 / scenecut=40 / intra_refresh=0 / rc_lookahead=250 / rc=crf / mbtree=0 / crf=22.8 / qcomp=0.60 / qpmin=0 / qpmax=69 / qpstep=4 / vbv_maxrate=62500 / vbv_bufsize=78125 / crf_max=0.0 / nal_hrd=none / filler=0 / ip_ratio=1.30 / pb_ratio=1.20 / aq=3:0.80
  25. Language                                 : English
  26. Default                                  : Yes
  27. Forced                                   : No
  28. Color range                              : Limited
  29. Color primaries                          : BT.709
  30. Matrix coefficients                      : BT.709

  31. Audio
  32. ID                                       : 2
  33. Format                                   : E-AC-3
  34. Format/Info                              : Enhanced AC-3
  35. Commercial name                          : Dolby Digital Plus
  36. Codec ID                                 : A_EAC3
  37. Duration                                 : 1 h 39 min
  38. Bit rate mode                            : Constant
  39. Bit rate                                 : 1 023 kb/s
  40. Channel(s)                               : 6 channels
  41. Channel layout                           : L R C LFE Ls Rs
  42. Sampling rate                            : 48.0 kHz
  43. Frame rate                               : 93.750 FPS (512 SPF)
  44. Compression mode                         : Lossy
  45. Stream size                              : 729 MiB (8%)
  46. Title                                    : Cantonese
  47. Language                                 : Chinese
  48. Service kind                             : Complete Main
  49. Default                                  : Yes
  50. Forced                                   : No

  51. Text
  52. ID                                       : 3
  53. Format                                   : UTF-8
  54. Codec ID                                 : S_TEXT/UTF8
  55. Codec ID/Info                            : UTF-8 Plain Text
  56. Duration                                 : 1 h 37 min
  57. Bit rate                                 : 55 b/s
  58. Count of elements                        : 1627
  59. Stream size                              : 39.7 KiB (0%)
  60. Language                                 : English
  61. Default                                  : Yes
  62. Forced                                   : No

  63. Menu
  64. 00:00:00.000                             : en:Chapter 1
  65. 00:08:30.708                             : en:Chapter 2
  66. 00:17:32.291                             : en:Chapter 3
  67. 00:26:08.500                             : en:Chapter 4
  68. 00:33:01.791                             : en:Chapter 5
  69. 00:41:23.708                             : en:Chapter 6
  70. 00:48:56.416                             : en:Chapter 7
  71. 00:56:48.291                             : en:Chapter 8
  72. 01:05:39.333                             : en:Chapter 9
  73. 01:15:05.875                             : en:Chapter 10
  74. 01:22:46.958                             : en:Chapter 11
  75. 01:31:56.291                             : en:Chapter 12
复制代码

财叔之风卷残云 The.Raid.1991.CHINESE.1080p.BluRay.x264-PTer 8.72GB-2.png 财叔之风卷残云 The.Raid.1991.CHINESE.1080p.BluRay.x264-PTer 8.72GB-3.png 财叔之风卷残云 The.Raid.1991.CHINESE.1080p.BluRay.x264-PTer 8.72GB-4.png






回复

使用道具 举报

懒得打字嘛,点击右侧快捷回复 【右侧内容,后台自定义】
您需要登录后才可以回帖 登录 | 立即加入

本版积分规则

Archiver|小黑屋| 蓝光电影网 |网站地图

Copyright © 2021 Comsenz Inc. Powered by 蓝光电影网

蓝光电影网

本站内容由用户自主分享和转载自互联网,转载目的在于传递更多信息,并不代表本网赞同其观点和对其真实性负责。

如有侵权、违反国家法律政策行为,请联系我们,我们会第一时间及时清除和处理!

举报反馈邮箱:[email protected]

快速回复 返回顶部 返回列表