找回密码

蓝光电影网

查看: 2552|回复: 7

[恐怖] 色欲之死3 Rape.Zombie.Lust.of.the.Dead.3.2013.JAPANESE.1080p.BluRay.x264.DTS-FGT 6.28GB

[复制链接]
蓝光币
382
发表于 2020-1-22 15:29:29 | 显示全部楼层 |阅读模式
色欲之死3 Rape.Zombie.Lust.of.the.Dead.3.2013.JAPANESE.1080p.BluRay.x264.DTS-FGT 6.28GB-1.png

译  名 色欲之死3
片  名 レイプゾンビ3 Lust of The Dead
年  代 2013
产  地 日本
类  别 可骇
语  言 日语
上映日期 2013-03-23(日本)
IMDb评分  3.9/10 from 245 users
IMDb链接  https://www.imdb.com/title/tt2769158
豆瓣评分 4.2/10 from 207 users
豆瓣链接 https://movie.douban.com/subject/22993110/
片  长 68分钟
导  演 友松直之 Naoyuki Tomomatsu
主  演 小泽爱丽丝 Alice Ozawa
       亚纱美 Asami
       相川优衣 Yui Aikawa
       小林沙耶 Saya Kobayashi


标  签 色欲之死3 | 我想看这部电影 | 情色 | 日本 | 可骇 | 我想看 | 暴力 | 血腥

简  介  

  暂无相关剧情先容
  1. Video
  2. ID                                       : 1
  3. Format                                   : AVC
  4. Format/Info                              : Advanced Video Codec
  5. Format profile                           : [email protected]
  6. Format settings                          : CABAC / 4 Ref Frames
  7. Format settings, CABAC                   : Yes
  8. Format settings, Reference frames        : 4 frames
  9. Codec ID                                 : V_MPEG4/ISO/AVC
  10. Duration                                 : 1 h 9 min
  11. Bit rate                                 : 11.5 Mb/s
  12. Width                                    : 1 920 pixels
  13. Height                                   : 1 080 pixels
  14. Display aspect ratio                     : 16:9
  15. Frame rate mode                          : Constant
  16. Frame rate                               : 29.970 (29970/1000) FPS
  17. Color space                              : YUV
  18. Chroma subsampling                       : 4:2:0
  19. Bit depth                                : 8 bits
  20. Scan type                                : Progressive
  21. Bits/(Pixel*Frame)                       : 0.185
  22. Stream size                              : 5.55 GiB (88%)
  23. Title                                    : Rape.Zombie.Lust.of.the.Dead.3.2013.JAPANESE.1080p.BluRay.x264.DTS-FGT
  24. Writing library                          : x264 core 148 r2748 97eaef2
  25. Encoding settings                        : cabac=1 / ref=4 / deblock=1:-2:-2 / analyse=0x3:0x113 / me=umh / subme=9 / psy=1 / psy_rd=1.00:0.15 / mixed_ref=1 / me_range=16 / chroma_me=1 / trellis=2 / 8x8dct=1 / cqm=0 / deadzone=21,11 / fast_pskip=1 / chroma_qp_offset=-3 / threads=24 / lookahead_threads=3 / sliced_threads=0 / nr=0 / decimate=1 / interlaced=0 / bluray_compat=0 / constrained_intra=0 / bframes=3 / b_pyramid=2 / b_adapt=1 / b_bias=0 / direct=3 / weightb=1 / open_gop=0 / weightp=2 / keyint=250 / keyint_min=25 / scenecut=40 / intra_refresh=0 / rc_lookahead=50 / rc=2pass / mbtree=1 / bitrate=11500 / ratetol=1.0 / qcomp=0.60 / qpmin=0 / qpmax=69 / qpstep=4 / cplxblur=20.0 / qblur=0.5 / vbv_maxrate=31250 / vbv_bufsize=31250 / nal_hrd=none / filler=0 / ip_ratio=1.40 / aq=1:1.00
  26. Default                                  : Yes
  27. Forced                                   : No

  28. Audio
  29. ID                                       : 2
  30. Format                                   : DTS
  31. Format/Info                              : Digital Theater Systems
  32. Codec ID                                 : A_DTS
  33. Duration                                 : 1 h 9 min
  34. Bit rate mode                            : Constant
  35. Bit rate                                 : 1 509 kb/s
  36. Channel(s)                               : 2 channels
  37. Channel layout                           : L R
  38. Sampling rate                            : 48.0 kHz
  39. Frame rate                               : 93.750 FPS (512 SPF)
  40. Bit depth                                : 16 bits
  41. Compression mode                         : Lossy
  42. Stream size                              : 747 MiB (12%)
  43. Title                                    : Rape.Zombie.Lust.of.the.Dead.3.2013.JAPANESE.1080p.BluRay.x264.DTS-FGT
  44. Language                                 : Japanese
  45. Default                                  : Yes
  46. Forced                                   : No

  47. Text
  48. ID                                       : 3
  49. Format                                   : UTF-8
  50. Codec ID                                 : S_TEXT/UTF8
  51. Codec ID/Info                            : UTF-8 Plain Text
  52. Duration                                 : 1 h 4 min
  53. Bit rate                                 : 27 b/s
  54. Count of elements                        : 374
  55. Stream size                              : 13.1 KiB (0%)
  56. Language                                 : English
  57. Default                                  : Yes
  58. Forced                                   : No

  59. Menu
  60. 00:00:00.000                             : en:Chapter 1
  61. 00:14:06.412                             : en:Chapter 2
  62. 00:29:15.287                             : en:Chapter 3
  63. 00:41:15.606                             : en:Chapter 4
  64. 00:49:17.688                             : en:Chapter 5
  65. 01:00:47.677                             : en:Chapter 6
复制代码

色欲之死3 Rape.Zombie.Lust.of.the.Dead.3.2013.JAPANESE.1080p.BluRay.x264.DTS-FGT 6.28GB-1.png 色欲之死3 Rape.Zombie.Lust.of.the.Dead.3.2013.JAPANESE.1080p.BluRay.x264.DTS-FGT 6.28GB-3.png 色欲之死3 Rape.Zombie.Lust.of.the.Dead.3.2013.JAPANESE.1080p.BluRay.x264.DTS-FGT 6.28GB-4.png






回复

使用道具 举报

蓝光币
643
发表于 2020-1-22 18:10:11 | 显示全部楼层
谢谢楼主无私分享。
回复 支持 反对

使用道具 举报

蓝光币
115
发表于 2020-1-22 20:39:09 | 显示全部楼层

其实我一直觉得楼主的品味不错!呵呵!蓝光电影网太棒了!
回复 支持 反对

使用道具 举报

蓝光币
1
发表于 2020-1-23 06:15:00 | 显示全部楼层
非常感谢,新年快乐!
回复 支持 反对

使用道具 举报

蓝光币
542
发表于 2020-1-23 14:21:30 | 显示全部楼层
求字幕~~
Sub和字幕库找了,都没有
回复 支持 反对

使用道具 举报

蓝光币
66
发表于 2020-1-23 15:50:13 | 显示全部楼层
楼主发贴辛苦了,谢谢楼主分享!我觉得蓝光电影网是注册对了!
回复 支持 反对

使用道具 举报

蓝光币
737
发表于 2020-1-27 12:34:01 | 显示全部楼层
楼主发贴辛苦了,谢谢楼主分享!我觉得蓝光电影网是注册对了!
回复 支持 反对

使用道具 举报

蓝光币
18
发表于 2020-2-11 15:39:23 | 显示全部楼层
楼主发贴辛苦了
回复 支持 反对

使用道具 举报

懒得打字嘛,点击右侧快捷回复 【右侧内容,后台自定义】
您需要登录后才可以回帖 登录 | 立即加入

本版积分规则

Archiver|小黑屋| 蓝光电影网 |网站地图

Copyright © 2021 Comsenz Inc. Powered by 蓝光电影网

蓝光电影网

本站内容由用户自主分享和转载自互联网,转载目的在于传递更多信息,并不代表本网赞同其观点和对其真实性负责。

如有侵权、违反国家法律政策行为,请联系我们,我们会第一时间及时清除和处理!

举报反馈邮箱:[email protected]

快速回复 返回顶部 返回列表