找回密码

蓝光电影网

查看: 816|回复: 6

[剧情] 洪文定三破白莲教 Fists.of.the.White.Lotus.1980.CHINESE.1080p.BluRay.x264.DD2.0-FGT 7.30GB

[复制链接]
蓝光币
426
发表于 2020-1-22 15:49:07 | 显示全部楼层 |阅读模式
洪订婚三破白莲教 Fists.of.the.White.Lotus.1980.CHINESE.1080p.BluRay.x264.DD2.0-FGT 7.30GB-1.png

译  名 Clan of the White Lotus
片  名 洪订婚三破白莲教
年  代 1980
产  地 中国香港
类  别 剧情 / 行动
语  言 汉语普通话
上映日期 1980-01-01
IMDb评分  7.3/10 from 1162 users
IMDb链接  https://www.imdb.com/title/tt0080905
豆瓣评分 6.7/10 from 304 users
豆瓣链接 https://movie.douban.com/subject/1532931/
片  长 USA: 95 分钟
导  演 罗烈 Lieh Lo
编  剧 黄天
主  演 罗烈 Lieh Lo
       刘家辉 Chia Hui Liu
       惠英红 Kara Hui
       王龙威 Lung Wei Wang
       井淼 Miao Ching


标  签 邵氏 | 香港 | 刘家辉 | 罗烈 | 惠英红 | 武侠 | 行动 | 香港电影

简  介  

  本片拍於1979年,由性情明星羅烈自導自演,並邀得劉家良作武術指導。故事描写,白蓮教主(羅烈)六十餘歲,紅顏白髮,練就絕招,能閉满身穴道,武功高深莫測,卻甘作滿清鷹犬,黑暗協助師侄高進忠(王龍威),消滅反清志士及破壞重建少林寺;洪订婚(劉家輝)為少林豪杰洪熙官之子,曾擊斃白之師弟白眉道人,名震江湖。白與高偵知洪住反清志士胡亞彪家中,夜襲殺胡及其妹,洪幸護著身懷六甲的胡妻(惠英紅)突圍逃走……
  1. Video
  2. ID                                       : 1
  3. Format                                   : AVC
  4. Format/Info                              : Advanced Video Codec
  5. Format profile                           : [email protected]
  6. Format settings                          : CABAC / 4 Ref Frames
  7. Format settings, CABAC                   : Yes
  8. Format settings, Reference frames        : 4 frames
  9. Codec ID                                 : V_MPEG4/ISO/AVC
  10. Duration                                 : 1 h 29 min
  11. Bit rate                                 : 11.5 Mb/s
  12. Width                                    : 1 920 pixels
  13. Height                                   : 812 pixels
  14. Display aspect ratio                     : 2.35:1
  15. Frame rate mode                          : Constant
  16. Frame rate                               : 25.000 FPS
  17. Color space                              : YUV
  18. Chroma subsampling                       : 4:2:0
  19. Bit depth                                : 8 bits
  20. Scan type                                : Progressive
  21. Bits/(Pixel*Frame)                       : 0.295
  22. Stream size                              : 7.22 GiB (99%)
  23. Title                                    : Fists.of.the.White.Lotus.1980.CHINESE.1080p.BluRay.x264.DD2.0-FGT
  24. Writing library                          : x264 core 148 r2795M aaa9aa8
  25. Encoding settings                        : cabac=1 / ref=4 / deblock=1:-2:-2 / analyse=0x3:0x113 / me=umh / subme=9 / psy=1 / psy_rd=1.00:0.15 / mixed_ref=1 / me_range=16 / chroma_me=1 / trellis=2 / 8x8dct=1 / cqm=0 / deadzone=21,11 / fast_pskip=1 / chroma_qp_offset=-3 / threads=24 / lookahead_threads=3 / sliced_threads=0 / nr=0 / decimate=1 / interlaced=0 / bluray_compat=0 / constrained_intra=0 / bframes=3 / b_pyramid=2 / b_adapt=1 / b_bias=0 / direct=3 / weightb=1 / open_gop=0 / weightp=2 / keyint=250 / keyint_min=25 / scenecut=40 / intra_refresh=0 / rc_lookahead=50 / rc=2pass / mbtree=1 / bitrate=11500 / ratetol=1.0 / qcomp=0.60 / qpmin=0 / qpmax=69 / qpstep=4 / cplxblur=20.0 / qblur=0.5 / vbv_maxrate=31250 / vbv_bufsize=31250 / nal_hrd=none / filler=0 / ip_ratio=1.40 / aq=1:1.00
  26. Language                                 : Chinese
  27. Default                                  : Yes
  28. Forced                                   : No

  29. Audio
  30. ID                                       : 2
  31. Format                                   : AC-3
  32. Format/Info                              : Audio Coding 3
  33. Commercial name                          : Dolby Digital
  34. Codec ID                                 : A_AC3
  35. Duration                                 : 1 h 29 min
  36. Bit rate mode                            : Constant
  37. Bit rate                                 : 128 kb/s
  38. Channel(s)                               : 2 channels
  39. Channel layout                           : L R
  40. Sampling rate                            : 48.0 kHz
  41. Frame rate                               : 31.250 FPS (1536 SPF)
  42. Bit depth                                : 16 bits
  43. Compression mode                         : Lossy
  44. Stream size                              : 82.2 MiB (1%)
  45. Title                                    : Fists.of.the.White.Lotus.1980.CHINESE.1080p.BluRay.x264.DD2.0-FGT
  46. Language                                 : Chinese
  47. Service kind                             : Complete Main
  48. Default                                  : Yes
  49. Forced                                   : No

  50. Text #1
  51. ID                                       : 3
  52. Format                                   : UTF-8
  53. Codec ID                                 : S_TEXT/UTF8
  54. Codec ID/Info                            : UTF-8 Plain Text
  55. Duration                                 : 1 h 28 min
  56. Bit rate                                 : 30 b/s
  57. Count of elements                        : 753
  58. Stream size                              : 19.9 KiB (0%)
  59. Language                                 : English
  60. Default                                  : Yes
  61. Forced                                   : No

  62. Text #2
  63. ID                                       : 4
  64. Format                                   : UTF-8
  65. Codec ID                                 : S_TEXT/UTF8
  66. Codec ID/Info                            : UTF-8 Plain Text
  67. Duration                                 : 1 h 28 min
  68. Bit rate                                 : 27 b/s
  69. Count of elements                        : 826
  70. Stream size                              : 17.8 KiB (0%)
  71. Title                                    : Simplified
  72. Language                                 : Chinese
  73. Default                                  : No
  74. Forced                                   : No

  75. Menu
  76. 00:00:00.000                             : en:Chapter 1
  77. 00:03:18.000                             : en:Chapter 2
  78. 00:10:18.400                             : en:Chapter 3
  79. 00:19:33.000                             : en:Chapter 4
  80. 00:26:50.000                             : en:Chapter 5
  81. 00:33:02.000                             : en:Chapter 6
  82. 00:43:02.000                             : en:Chapter 7
  83. 00:50:29.000                             : en:Chapter 8
  84. 01:00:57.000                             : en:Chapter 9
  85. 01:10:25.000                             : en:Chapter 10
  86. 01:18:01.000                             : en:Chapter 11
  87. 01:29:26.000                             : en:Chapter 12
复制代码

洪订婚三破白莲教 Fists.of.the.White.Lotus.1980.CHINESE.1080p.BluRay.x264.DD2.0-FGT 7.30GB-2.png 洪订婚三破白莲教 Fists.of.the.White.Lotus.1980.CHINESE.1080p.BluRay.x264.DD2.0-FGT 7.30GB-3.png 洪订婚三破白莲教 Fists.of.the.White.Lotus.1980.CHINESE.1080p.BluRay.x264.DD2.0-FGT 7.30GB-4.png






回复

使用道具 举报

懒得打字嘛,点击右侧快捷回复 【右侧内容,后台自定义】
您需要登录后才可以回帖 登录 | 立即加入

本版积分规则

Archiver|小黑屋| 蓝光电影网 |网站地图

Copyright © 2021 Comsenz Inc. Powered by 蓝光电影网

蓝光电影网

本站内容由用户自主分享和转载自互联网,转载目的在于传递更多信息,并不代表本网赞同其观点和对其真实性负责。

如有侵权、违反国家法律政策行为,请联系我们,我们会第一时间及时清除和处理!

举报反馈邮箱:[email protected]

快速回复 返回顶部 返回列表