找回密码

蓝光电影网

查看: 280|回复: 3

[剧情] 穿过黑云杉 Through.Black.Spruce.2018.1080p.BluRay.REMUX.AVC.DTS-HD.MA.5.1-FGT 20.11GB

[复制链接]
蓝光币
382
发表于 2020-1-22 15:55:34 | 显示全部楼层 |阅读模式
穿过黑云杉 Through.Black.Spruce.2018.1080p.BluRay.REMUX.AVC.DTS-HD.MA.5.1-FGT 20.11GB-1.png

译  名 穿过黑云杉
片  名 Through Black Spruce
年  代 2018
产  地 加拿大
类  别 剧情
语  言 英语
上映日期 2018-09-08(多伦多电影节)
IMDb评分  5.2/10 from 256 users
IMDb链接  https://www.imdb.com/title/tt7400118
豆瓣评分 0/10 from 0 users
豆瓣链接 https://movie.douban.com/subject/30284132/
片  长 111分钟
导  演 唐·麦凯勒 Don McKellar
编  剧 Barbara Samuels
主  演 塔娜亚·比蒂 Tanaya Beatty
       格雷厄姆·格林 Graham Greene
       坦图·卡丁诺 Tantoo Cardinal
       帕尔文·考尔 Parveen Kaur
       凯欧瓦·高登 Kiowa Gordon
       罗丝安妮·休佩诺特 Roseanne Supernault
       达妮埃拉·巴博萨 Daniela Barbosa
       高莉莉 Lili Gao
       Glen Gould
       Anders Yates
       Wesley French
       Joey Klein


标  签 加拿大

简  介  

  In a story told from two different perspectives, Will Bird recounts the events which led to him being in a coma, while his niece Annie recounts her attempt to help to revive him from his coma.
  1. Video
  2. ID                                       : 1
  3. Format                                   : AVC
  4. Format/Info                              : Advanced Video Codec
  5. Format profile                           : [email protected]
  6. Format settings                          : CABAC / 4 Ref Frames
  7. Format settings, CABAC                   : Yes
  8. Format settings, Reference frames        : 4 frames
  9. Codec ID                                 : V_MPEG4/ISO/AVC
  10. Duration                                 : 1 h 51 min
  11. Bit rate mode                            : Variable
  12. Bit rate                                 : 22.3 Mb/s
  13. Maximum bit rate                         : 32.0 Mb/s
  14. Width                                    : 1 920 pixels
  15. Height                                   : 1 080 pixels
  16. Display aspect ratio                     : 16:9
  17. Frame rate mode                          : Constant
  18. Frame rate                               : 23.976 (24000/1001) FPS
  19. Color space                              : YUV
  20. Chroma subsampling                       : 4:2:0
  21. Bit depth                                : 8 bits
  22. Scan type                                : Progressive
  23. Bits/(Pixel*Frame)                       : 0.449
  24. Stream size                              : 17.3 GiB (86%)
  25. Title                                    : Through.Black.Spruce.2018.1080p.BluRay.REMUX.AVC.DTS-HD.MA.5.1-FGT
  26. Language                                 : English
  27. Default                                  : No
  28. Forced                                   : No
  29. Color range                              : Limited
  30. Color primaries                          : BT.709
  31. Transfer characteristics                 : BT.709
  32. Matrix coefficients                      : BT.709

  33. Audio
  34. ID                                       : 2
  35. Format                                   : DTS XLL
  36. Format/Info                              : Digital Theater Systems
  37. Commercial name                          : DTS-HD Master Audio
  38. Codec ID                                 : A_DTS
  39. Duration                                 : 1 h 51 min
  40. Bit rate mode                            : Variable
  41. Bit rate                                 : 3 601 kb/s
  42. Channel(s)                               : 6 channels
  43. Channel layout                           : C L R Ls Rs LFE
  44. Sampling rate                            : 48.0 kHz
  45. Frame rate                               : 93.750 FPS (512 SPF)
  46. Bit depth                                : 24 bits
  47. Compression mode                         : Lossless
  48. Stream size                              : 2.79 GiB (14%)
  49. Title                                    : Through.Black.Spruce.2018.1080p.BluRay.REMUX.AVC.DTS-HD.MA.5.1-FGT
  50. Language                                 : English
  51. Default                                  : Yes
  52. Forced                                   : No

  53. Text #1
  54. ID                                       : 3
  55. Format                                   : UTF-8
  56. Codec ID                                 : S_TEXT/UTF8
  57. Codec ID/Info                            : UTF-8 Plain Text
  58. Duration                                 : 1 h 42 min
  59. Bit rate                                 : 45 b/s
  60. Count of elements                        : 1158
  61. Stream size                              : 34.2 KiB (0%)
  62. Title                                    : English-SRT
  63. Language                                 : English
  64. Default                                  : Yes
  65. Forced                                   : No

  66. Text #2
  67. ID                                       : 4
  68. Format                                   : UTF-8
  69. Codec ID                                 : S_TEXT/UTF8
  70. Codec ID/Info                            : UTF-8 Plain Text
  71. Duration                                 : 1 h 43 min
  72. Bit rate                                 : 49 b/s
  73. Count of elements                        : 1312
  74. Stream size                              : 38.0 KiB (0%)
  75. Title                                    : English-SDH-SRT
  76. Language                                 : English
  77. Default                                  : No
  78. Forced                                   : No

  79. Text #3
  80. ID                                       : 5
  81. Format                                   : PGS
  82. Muxing mode                              : zlib
  83. Codec ID                                 : S_HDMV/PGS
  84. Codec ID/Info                            : Picture based subtitle format used on BDs/HD-DVDs
  85. Duration                                 : 1 h 43 min
  86. Bit rate                                 : 25.8 kb/s
  87. Count of elements                        : 2624
  88. Stream size                              : 19.2 MiB (0%)
  89. Title                                    : English-PGS
  90. Language                                 : English
  91. Default                                  : No
  92. Forced                                   : No

  93. Menu
  94. 00:00:00.000                             : en:Chapter 01
  95. 00:07:12.932                             : en:Chapter 02
  96. 00:14:28.033                             : en:Chapter 03
  97. 00:25:14.012                             : en:Chapter 04
  98. 00:37:02.178                             : en:Chapter 05
  99. 00:46:21.320                             : en:Chapter 06
  100. 00:56:33.306                             : en:Chapter 07
  101. 01:05:36.098                             : en:Chapter 08
  102. 01:18:43.802                             : en:Chapter 09
  103. 01:26:50.747                             : en:Chapter 10
  104. 01:44:47.406                             : en:Chapter 11
复制代码

穿过黑云杉 Through.Black.Spruce.2018.1080p.BluRay.REMUX.AVC.DTS-HD.MA.5.1-FGT 20.11GB-2.png 穿过黑云杉 Through.Black.Spruce.2018.1080p.BluRay.REMUX.AVC.DTS-HD.MA.5.1-FGT 20.11GB-3.png 穿过黑云杉 Through.Black.Spruce.2018.1080p.BluRay.REMUX.AVC.DTS-HD.MA.5.1-FGT 20.11GB-4.png






回复

使用道具 举报

懒得打字嘛,点击右侧快捷回复 【右侧内容,后台自定义】
您需要登录后才可以回帖 登录 | 立即加入

本版积分规则

Archiver|小黑屋| 蓝光电影网 |网站地图

Copyright © 2021 Comsenz Inc. Powered by 蓝光电影网

蓝光电影网

本站内容由用户自主分享和转载自互联网,转载目的在于传递更多信息,并不代表本网赞同其观点和对其真实性负责。

如有侵权、违反国家法律政策行为,请联系我们,我们会第一时间及时清除和处理!

举报反馈邮箱:[email protected]

快速回复 返回顶部 返回列表