找回密码

蓝光电影网

查看: 301|回复: 2

[剧情] 哈丽特 Harriet.2019.1080p.BluRay.REMUX.AVC.DTS-HD.MA.7.1-FGT 35.57GB

[复制链接]
蓝光币
386
发表于 2020-1-22 16:00:55 | 显示全部楼层 |阅读模式
哈丽特 Harriet.2019.1080p.BluRay.REMUX.AVC.DTS-HD.MA.7.1-FGT 35.57GB-1.png

译  名 哈丽特 / Freedom Fire / 自在之火
片  名 Harriet
年  代 2019
产  地 美国
类  别 剧情 / 列传 / 历史
语  言 英语
上映日期 2019-09-10(多伦多电影节) / 2019-11-01(美国)
IMDb评分  6.3/10 from 5192 users
IMDb链接  https://www.imdb.com/title/tt4648786
豆瓣评分 5.9/10 from 235 users
豆瓣链接 https://movie.douban.com/subject/26786097/
片  长 125分钟
导  演 卡斯·莱蒙斯 Kasi Lemmons
编  剧 卡斯·莱蒙斯 Kasi Lemmons / 格雷戈里·艾伦·霍华德 Gregory Allen Howard
主  演 辛西娅·艾莉佛 Cynthia Erivo
       乔·阿尔文 Joe Alwyn
       加奈儿·梦奈 Janelle Monáe
       詹妮弗·内特尔斯 Jennifer Nettles
       蒂姆·金尼 Tim Guinee
       瓦妮莎·贝尔·卡洛威 Vanessa Bell Calloway
       克拉克·彼得斯 Clarke Peters
       小莱斯利·奥多姆 Leslie Odom Jr.
       沃迪·科蒂斯·霍尔 Vondie Curtis-Hall
       黛博拉·艾里德 Deborah Ayorinde
       托利·基特尔斯 Tory Kittles
       奥马尔·J·多尔西 Omar J. Dorsey
       米切尔·霍格 Mitchell Hoog
       施奎塔·詹姆斯 Shiquita James
       扎克瑞·莫莫 Zackary Momoh
       阿里娅·布鲁克斯 Aria Brooks
       迈克尔·图尔克 Michael Tourek
       约瑟夫·李·安德森 Joseph Lee Anderson
       皮特·布里斯 Pete Burris
       托马斯·基根 Thomas Keegan


标  签 列传 | 美国 | 历史 | 女性 | 2019 | 剧情 | 自在 | KasiLemmons

简  介  

  乔·阿尔文、小莱斯利·奥多姆将加盟列传影片[哈丽特],先前公布加盟的卡司包括辛西娅·埃里沃、克拉克·彼得斯等。塞斯·曼恩(《河山平安》)执导。哈丽特·塔布曼生于1822年,原本是生活在马里兰州的黑奴,1849年她逃到北方,未几后加入到帮助仆从流亡的美国“地下铁路”中,成为最活跃的魁首之一,屡次回抵故乡率领其他仆从逃往北方。南北战争爆发后,塔布曼积极参战,成为北军中为数不多的女性,战后她投身了争取妇女权益的活动。哈丽特也是首位登上美圆的女性。影片将于下月在美国弗吉尼亚州开拍。

获奖情况  

  第92届奥斯卡金像奖(2020)
  最好女配角(提名) 辛西娅·艾莉佛
  最好原创歌曲(提名) 辛西娅·艾莉佛 / 乔舒亚·布赖恩·坎贝尔

  第77届金球奖(2020)
  电影类 剧情片最好女配角(提名) 辛西娅·艾莉佛
  电影类 最好原创歌曲(提名)

  第26届美国演员工会奖(2020)
  电影奖 最好女配角(提名) 辛西娅·艾莉佛

  第25届美国批评家挑选电影奖(2020)
  最好女配角(提名) 辛西娅·艾莉佛
  最好歌曲(提名)

  第24届金卫星奖(2020)
  电影部分 剧情片最好女配角(提名) 辛西娅·艾莉佛
  电影部分 最好原创配乐(提名)

  第23届好莱坞电影奖(2019)
  年度冲破女演员 辛西娅·艾莉佛

  第40届伦敦影评人协会奖(2020)
  年度英国/爱尔兰女演员(提名) 辛西娅·艾莉佛
  1. Video
  2. ID                                       : 1
  3. Format                                   : AVC
  4. Format/Info                              : Advanced Video Codec
  5. Format profile                           : [email protected]
  6. Format settings                          : CABAC / 4 Ref Frames
  7. Format settings, CABAC                   : Yes
  8. Format settings, Reference frames        : 4 frames
  9. Format settings, GOP                     : M=3, N=12
  10. Codec ID                                 : V_MPEG4/ISO/AVC
  11. Duration                                 : 2 h 5 min
  12. Bit rate mode                            : Variable
  13. Bit rate                                 : 32.4 Mb/s
  14. Maximum bit rate                         : 36.1 Mb/s
  15. Width                                    : 1 920 pixels
  16. Height                                   : 1 080 pixels
  17. Display aspect ratio                     : 16:9
  18. Frame rate mode                          : Constant
  19. Frame rate                               : 23.976 (24000/1001) FPS
  20. Color space                              : YUV
  21. Chroma subsampling                       : 4:2:0
  22. Bit depth                                : 8 bits
  23. Scan type                                : Progressive
  24. Bits/(Pixel*Frame)                       : 0.651
  25. Stream size                              : 28.3 GiB (80%)
  26. Title                                    : Harriet.2019.1080p.BluRay.REMUX.AVC.DTS-HD.MA.7.1-FGT
  27. Language                                 : English
  28. Default                                  : No
  29. Forced                                   : No

  30. Audio #1
  31. ID                                       : 2
  32. Format                                   : DTS XLL
  33. Format/Info                              : Digital Theater Systems
  34. Commercial name                          : DTS-HD Master Audio
  35. Codec ID                                 : A_DTS
  36. Duration                                 : 2 h 5 min
  37. Bit rate mode                            : Variable
  38. Bit rate                                 : 5 069 kb/s
  39. Channel(s)                               : 8 channels
  40. Channel layout                           : C L R LFE Lb Rb Lss Rss
  41. Sampling rate                            : 48.0 kHz
  42. Frame rate                               : 93.750 FPS (512 SPF)
  43. Bit depth                                : 24 bits
  44. Compression mode                         : Lossless
  45. Stream size                              : 4.43 GiB (12%)
  46. Title                                    : Harriet.2019.1080p.BluRay.REMUX.AVC.DTS-HD.MA.7.1-FGT
  47. Language                                 : English
  48. Default                                  : Yes
  49. Forced                                   : No

  50. Audio #2
  51. ID                                       : 3
  52. Format                                   : DTS XBR
  53. Format/Info                              : Digital Theater Systems
  54. Commercial name                          : DTS-HD High Resolution Audio
  55. Codec ID                                 : A_DTS
  56. Duration                                 : 2 h 5 min
  57. Bit rate mode                            : Constant
  58. Bit rate                                 : 2 046 kb/s
  59. Channel(s)                               : 8 channels
  60. Channel layout                           : C L R LFE Lb Rb Lss Rss
  61. Sampling rate                            : 48.0 kHz
  62. Frame rate                               : 93.750 FPS (512 SPF)
  63. Bit depth                                : 24 bits
  64. Compression mode                         : Lossy
  65. Stream size                              : 1.79 GiB (5%)
  66. Title                                    : Harriet.2019.1080p.BluRay.REMUX.AVC.DTS-HD.MA.7.1-FGT
  67. Language                                 : Spanish
  68. Default                                  : No
  69. Forced                                   : No

  70. Audio #3
  71. ID                                       : 4
  72. Format                                   : DTS
  73. Format/Info                              : Digital Theater Systems
  74. Codec ID                                 : A_DTS
  75. Duration                                 : 2 h 5 min
  76. Bit rate mode                            : Constant
  77. Bit rate                                 : 768 kb/s
  78. Channel(s)                               : 6 channels
  79. Channel layout                           : C L R Ls Rs LFE
  80. Sampling rate                            : 48.0 kHz
  81. Frame rate                               : 93.750 FPS (512 SPF)
  82. Bit depth                                : 24 bits
  83. Compression mode                         : Lossy
  84. Stream size                              : 687 MiB (2%)
  85. Title                                    : Harriet.2019.1080p.BluRay.REMUX.AVC.DTS-HD.MA.7.1-FGT
  86. Language                                 : French
  87. Default                                  : No
  88. Forced                                   : No

  89. Audio #4
  90. ID                                       : 5
  91. Format                                   : AC-3
  92. Format/Info                              : Audio Coding 3
  93. Commercial name                          : Dolby Digital
  94. Codec ID                                 : A_AC3
  95. Duration                                 : 2 h 5 min
  96. Bit rate mode                            : Constant
  97. Bit rate                                 : 192 kb/s
  98. Channel(s)                               : 2 channels
  99. Channel layout                           : L R
  100. Sampling rate                            : 48.0 kHz
  101. Frame rate                               : 31.250 FPS (1536 SPF)
  102. Bit depth                                : 16 bits
  103. Compression mode                         : Lossy
  104. Stream size                              : 172 MiB (0%)
  105. Title                                    : Harriet.2019.1080p.BluRay.REMUX.AVC.DTS-HD.MA.7.1-FGT
  106. Language                                 : English
  107. Service kind                             : Complete Main
  108. Default                                  : No
  109. Forced                                   : No

  110. Audio #5
  111. ID                                       : 6
  112. Format                                   : AC-3
  113. Format/Info                              : Audio Coding 3
  114. Commercial name                          : Dolby Digital
  115. Codec ID                                 : A_AC3
  116. Duration                                 : 2 h 5 min
  117. Bit rate mode                            : Constant
  118. Bit rate                                 : 192 kb/s
  119. Channel(s)                               : 2 channels
  120. Channel layout                           : L R
  121. Sampling rate                            : 48.0 kHz
  122. Frame rate                               : 31.250 FPS (1536 SPF)
  123. Bit depth                                : 16 bits
  124. Compression mode                         : Lossy
  125. Stream size                              : 172 MiB (0%)
  126. Title                                    : Harriet.2019.1080p.BluRay.REMUX.AVC.DTS-HD.MA.7.1-FGT
  127. Language                                 : English
  128. Service kind                             : Complete Main
  129. Default                                  : No
  130. Forced                                   : No

  131. Text #1
  132. ID                                       : 7
  133. Format                                   : UTF-8
  134. Codec ID                                 : S_TEXT/UTF8
  135. Codec ID/Info                            : UTF-8 Plain Text
  136. Duration                                 : 2 h 1 min
  137. Bit rate                                 : 51 b/s
  138. Count of elements                        : 1536
  139. Stream size                              : 45.8 KiB (0%)
  140. Title                                    : English-SRT
  141. Language                                 : English
  142. Default                                  : Yes
  143. Forced                                   : No

  144. Text #2
  145. ID                                       : 8
  146. Format                                   : PGS
  147. Muxing mode                              : zlib
  148. Codec ID                                 : S_HDMV/PGS
  149. Codec ID/Info                            : Picture based subtitle format used on BDs/HD-DVDs
  150. Duration                                 : 2 h 2 min
  151. Bit rate                                 : 37.1 kb/s
  152. Count of elements                        : 3414
  153. Stream size                              : 32.6 MiB (0%)
  154. Title                                    : English-PGS
  155. Language                                 : English
  156. Default                                  : No
  157. Forced                                   : No

  158. Text #3
  159. ID                                       : 9
  160. Format                                   : PGS
  161. Muxing mode                              : zlib
  162. Codec ID                                 : S_HDMV/PGS
  163. Codec ID/Info                            : Picture based subtitle format used on BDs/HD-DVDs
  164. Duration                                 : 2 h 3 min
  165. Bit rate                                 : 31.1 kb/s
  166. Count of elements                        : 2711
  167. Stream size                              : 27.6 MiB (0%)
  168. Title                                    : Spanish-PGS
  169. Language                                 : Spanish
  170. Default                                  : No
  171. Forced                                   : No

  172. Text #4
  173. ID                                       : 10
  174. Format                                   : PGS
  175. Muxing mode                              : zlib
  176. Codec ID                                 : S_HDMV/PGS
  177. Codec ID/Info                            : Picture based subtitle format used on BDs/HD-DVDs
  178. Duration                                 : 2 h 3 min
  179. Bit rate                                 : 34.0 kb/s
  180. Count of elements                        : 2698
  181. Stream size                              : 30.2 MiB (0%)
  182. Title                                    : French-PGS
  183. Language                                 : French
  184. Default                                  : No
  185. Forced                                   : No

  186. Text #5
  187. ID                                       : 11
  188. Format                                   : PGS
  189. Muxing mode                              : zlib
  190. Codec ID                                 : S_HDMV/PGS
  191. Codec ID/Info                            : Picture based subtitle format used on BDs/HD-DVDs
  192. Duration                                 : 1 h 54 min
  193. Bit rate                                 : 1 390 b/s
  194. Count of elements                        : 87
  195. Stream size                              : 1.14 MiB (0%)
  196. Title                                    : Spanish-FORCED-PGS
  197. Language                                 : Spanish
  198. Default                                  : No
  199. Forced                                   : No

  200. Text #6
  201. ID                                       : 12
  202. Format                                   : PGS
  203. Muxing mode                              : zlib
  204. Codec ID                                 : S_HDMV/PGS
  205. Codec ID/Info                            : Picture based subtitle format used on BDs/HD-DVDs
  206. Duration                                 : 1 h 32 min
  207. Bit rate                                 : 1 313 b/s
  208. Count of elements                        : 64
  209. Stream size                              : 890 KiB (0%)
  210. Title                                    : French-FORCED-PGS
  211. Language                                 : French
  212. Default                                  : No
  213. Forced                                   : No

  214. Menu
  215. 00:00:00.000                             : en:Chapter 01
  216. 00:07:19.522                             : en:Chapter 02
  217. 00:15:38.228                             : en:Chapter 03
  218. 00:21:44.845                             : en:Chapter 04
  219. 00:26:02.269                             : en:Chapter 05
  220. 00:32:32.533                             : en:Chapter 06
  221. 00:42:15.115                             : en:Chapter 07
  222. 00:47:42.693                             : en:Chapter 08
  223. 00:53:37.672                             : en:Chapter 09
  224. 01:00:14.902                             : en:Chapter 10
  225. 01:05:27.840                             : en:Chapter 11
  226. 01:12:32.973                             : en:Chapter 12
  227. 01:20:03.173                             : en:Chapter 13
  228. 01:24:47.457                             : en:Chapter 14
  229. 01:29:37.121                             : en:Chapter 15
  230. 01:34:13.648                             : en:Chapter 16
  231. 01:42:48.162                             : en:Chapter 17
  232. 01:47:58.388                             : en:Chapter 18
  233. 01:54:02.460                             : en:Chapter 19
  234. 01:58:13.669                             : en:Chapter 20
复制代码

哈丽特 Harriet.2019.1080p.BluRay.REMUX.AVC.DTS-HD.MA.7.1-FGT 35.57GB-2.png 哈丽特 Harriet.2019.1080p.BluRay.REMUX.AVC.DTS-HD.MA.7.1-FGT 35.57GB-3.png 哈丽特 Harriet.2019.1080p.BluRay.REMUX.AVC.DTS-HD.MA.7.1-FGT 35.57GB-4.png






回复

使用道具 举报

蓝光币
18
发表于 2020-1-29 16:21:10 | 显示全部楼层

我看不错噢 谢谢楼主!蓝光电影网越来越好!
回复 支持 反对

使用道具 举报

蓝光币
197
发表于 2020-2-21 13:33:01 | 显示全部楼层
少有看西部题材影片  谢谢分享
回复 支持 反对

使用道具 举报

懒得打字嘛,点击右侧快捷回复 【右侧内容,后台自定义】
您需要登录后才可以回帖 登录 | 立即加入

本版积分规则

Archiver|小黑屋| 蓝光电影网 |网站地图

Copyright © 2021 Comsenz Inc. Powered by 蓝光电影网

蓝光电影网

本站内容由用户自主分享和转载自互联网,转载目的在于传递更多信息,并不代表本网赞同其观点和对其真实性负责。

如有侵权、违反国家法律政策行为,请联系我们,我们会第一时间及时清除和处理!

举报反馈邮箱:[email protected]

快速回复 返回顶部 返回列表