找回密码

蓝光电影网

查看: 588|回复: 3

[剧情] 洞/凶洞 The.Hole.2001.720p.BluRay.X264-AMIABLE 4.37GB

[复制链接]
蓝光币
386
发表于 2020-1-22 21:21:05 | 显示全部楼层 |阅读模式
洞/凶洞 The.Hole.2001.720p.BluRay.X264-AMIABLE 4.37GB-1.png

译  名 洞 / 凶洞 / 可骇洞 / 鬼地方
片  名 The Hole
年  代 2001
产  地 英国
类  别 剧情 / 悬疑 / 惊悚 / 可骇
语  言 英语
上映日期 2001-12-13
IMDb评分  6.2/10 from 42865 users
IMDb链接  https://www.imdb.com/title/tt0242527
豆瓣评分 6.6/10 from 1867 users
豆瓣链接 https://movie.douban.com/subject/1306528/
片  长 102 分钟
导  演 Nick Hamm
编  剧 Ben Court / Caroline Ip / Guy Burt
主  演 Thora Birch
       凯拉·奈特莉 Keira Knightley
       Embeth Davidtz
       Desmond Harrington
       Daniel Brocklebank
       劳伦斯·福克斯 Laurence Fox


标  签 悬疑 | 惊悚 | 英国 | 人性 | 可骇 | 青春 | KeiraKnightley | 英国电影

简  介  

  一个名叫莉兹(索拉·伯奇 Thora Birch 饰)的女孩刚刚履历了人生中最可怕的一段时光,在心理学家菲丽帕(艾伯丝·戴维兹 Embeth Davidtz 饰)的循循善诱下,她终究决议将她的履历公诸于众。在莉兹、麦克(戴斯蒙德·哈灵顿 Desmond Harrington 饰)和马丁(Daniel Brocklebank 饰)这一女两男之间,存在着一段复杂的三角关系,莉兹迷恋麦克,马丁则对莉兹穷追不舍。在一个偶然发现的地下堡垒中,麦克和朋友们决议开一个为期三天的奥秘派对,莉兹也加入到了其中。
  就在年轻人们纵情狂欢以后,他们震动的发现,地堡的唯一出口被封死了。莉兹以为这是马丁出于妒忌所为,在履历了一番挫折以后,莉兹和麦克终究逃诞生天。可是,按照警方的观察,麦克早已经死在了地堡当中,而当警方找到马丁之时,从马丁口入耳到的,居然是一个与莉兹所述截然分歧的故事。究竟是谁在撒谎?真相又究竟是怎样的呢?
  1. Video
  2. ID                                       : 1
  3. Format                                   : AVC
  4. Format/Info                              : Advanced Video Codec
  5. Format profile                           : [email protected]
  6. Format settings                          : CABAC / 5 Ref Frames
  7. Format settings, CABAC                   : Yes
  8. Format settings, Reference frames        : 5 frames
  9. Codec ID                                 : V_MPEG4/ISO/AVC
  10. Duration                                 : 1 h 42 min
  11. Bit rate                                 : 4 611 kb/s
  12. Width                                    : 1 280 pixels
  13. Height                                   : 544 pixels
  14. Display aspect ratio                     : 2.35:1
  15. Frame rate mode                          : Constant
  16. Frame rate                               : 24.000 FPS
  17. Color space                              : YUV
  18. Chroma subsampling                       : 4:2:0
  19. Bit depth                                : 8 bits
  20. Scan type                                : Progressive
  21. Bits/(Pixel*Frame)                       : 0.276
  22. Stream size                              : 3.21 GiB (73%)
  23. Writing library                          : x264 core 159 r2991 1771b55
  24. Encoding settings                        : cabac=1 / ref=5 / deblock=1:-3:-3 / analyse=0x3:0x113 / me=umh / subme=8 / psy=1 / psy_rd=1.05:0.00 / mixed_ref=1 / me_range=24 / chroma_me=1 / trellis=2 / 8x8dct=1 / cqm=0 / deadzone=21,11 / fast_pskip=1 / chroma_qp_offset=-2 / threads=17 / lookahead_threads=2 / sliced_threads=0 / nr=0 / decimate=1 / interlaced=0 / bluray_compat=0 / constrained_intra=0 / bframes=3 / b_pyramid=2 / b_adapt=2 / b_bias=0 / direct=3 / weightb=1 / open_gop=0 / weightp=2 / keyint=240 / keyint_min=24 / scenecut=40 / intra_refresh=0 / rc_lookahead=50 / rc=2pass / mbtree=1 / bitrate=4611 / ratetol=1.0 / qcomp=0.60 / qpmin=0 / qpmax=69 / qpstep=4 / cplxblur=20.0 / qblur=0.5 / ip_ratio=1.40 / aq=3:0.70
  25. Default                                  : Yes
  26. Forced                                   : No
  27. Statistics Tags Issue                    : no_variable_data 1970-01-01 00:00:00 / no_variable_data 2010-02-22 21:41:29
  28. FromStats_BitRate                        : 4610730
  29. FromStats_Duration                       : 01:42:12.000000000
  30. FromStats_FrameCount                     : 147168
  31. FromStats_StreamSize                     : 3534124766

  32. Audio
  33. ID                                       : 2
  34. Format                                   : DTS
  35. Format/Info                              : Digital Theater Systems
  36. Codec ID                                 : A_DTS
  37. Duration                                 : 1 h 42 min
  38. Bit rate mode                            : Constant
  39. Bit rate                                 : 1 509 kb/s
  40. Channel(s)                               : 6 channels
  41. Channel layout                           : C L R Ls Rs LFE
  42. Sampling rate                            : 48.0 kHz
  43. Frame rate                               : 93.750 FPS (512 SPF)
  44. Bit depth                                : 24 bits
  45. Compression mode                         : Lossy
  46. Stream size                              : 1.08 GiB (25%)
  47. Language                                 : English
  48. Default                                  : Yes
  49. Forced                                   : No
  50. Statistics Tags Issue                    : no_variable_data 1970-01-01 00:00:00 / no_variable_data 2010-02-22 21:41:29
  51. FromStats_BitRate                        : 1508999
  52. FromStats_Duration                       : 01:42:11.926000000
  53. FromStats_FrameCount                     : 574868
  54. FromStats_StreamSize                     : 1156634416

  55. Text #1
  56. ID                                       : 3
  57. Format                                   : UTF-8
  58. Codec ID                                 : S_TEXT/UTF8
  59. Codec ID/Info                            : UTF-8 Plain Text
  60. Language                                 : English
  61. Default                                  : No
  62. Forced                                   : No
  63. Statistics Tags Issue                    : no_variable_data 1970-01-01 00:00:00 / no_variable_data 2010-02-22 21:41:29
  64. FromStats_BitRate                        : 56
  65. FromStats_Duration                       : 01:33:30.021000000
  66. FromStats_FrameCount                     : 1367
  67. FromStats_StreamSize                     : 39345

  68. Text #2
  69. ID                                       : 4
  70. Format                                   : UTF-8
  71. Codec ID                                 : S_TEXT/UTF8
  72. Codec ID/Info                            : UTF-8 Plain Text
  73. Title                                    : SDH
  74. Language                                 : English
  75. Default                                  : No
  76. Forced                                   : No
  77. Statistics Tags Issue                    : no_variable_data 1970-01-01 00:00:00 / no_variable_data 2010-02-22 21:41:29
  78. FromStats_BitRate                        : 60
  79. FromStats_Duration                       : 01:35:54.554000000
  80. FromStats_FrameCount                     : 1533
  81. FromStats_StreamSize                     : 43326

  82. Menu
  83. 00:00:00.000                             : en:Chapter 01
  84. 00:07:36.708                             : en:Chapter 02
  85. 00:14:29.083                             : en:Chapter 03
  86. 00:21:26.583                             : en:Chapter 04
  87. 00:29:30.958                             : en:Chapter 05
  88. 00:40:59.292                             : en:Chapter 06
  89. 00:48:58.917                             : en:Chapter 07
  90. 00:57:25.542                             : en:Chapter 08
  91. 01:07:15.583                             : en:Chapter 09
  92. 01:18:33.958                             : en:Chapter 10
  93. 01:25:37.500                             : en:Chapter 11
  94. 01:33:49.625                             : en:Chapter 12
复制代码

洞/凶洞 The.Hole.2001.720p.BluRay.X264-AMIABLE 4.37GB-2.png






回复

使用道具 举报

懒得打字嘛,点击右侧快捷回复 【右侧内容,后台自定义】
您需要登录后才可以回帖 登录 | 立即加入

本版积分规则

Archiver|小黑屋| 蓝光电影网 |网站地图

Copyright © 2021 Comsenz Inc. Powered by 蓝光电影网

蓝光电影网

本站内容由用户自主分享和转载自互联网,转载目的在于传递更多信息,并不代表本网赞同其观点和对其真实性负责。

如有侵权、违反国家法律政策行为,请联系我们,我们会第一时间及时清除和处理!

举报反馈邮箱:[email protected]

快速回复 返回顶部 返回列表