找回密码

蓝光电影网

查看: 318|回复: 2

[纪录] 琳达·朗斯塔特:我的声音 Linda.Ronstadt.The.Sound.of.My.Voice.2019.720p.BluRay.x264-YOL0W 4.37GB

[复制链接]
蓝光币
386
发表于 2020-1-22 21:54:51 | 显示全部楼层 |阅读模式
琳达·朗斯塔特:我的声音 Linda.Ronstadt.The.Sound.of.My.Voice.2019.720p.BluRay.x264-YOL0W 4.37GB-1.png

译  名 琳达·朗斯塔特:我的声音
片  名 Linda Ronstadt: The Sound of My Voice
年  代 2019
产  地 美国
类  别 记载片 / 音乐
语  言 英语
上映日期 2019-04-26(美国)
IMDb评分  8.1/10 from 961 users
IMDb链接  https://www.imdb.com/title/tt10011448
豆瓣评分 0/10 from 0 users
豆瓣链接 https://movie.douban.com/subject/33435867/
片  长 95分钟
导  演 罗伯·爱泼斯坦 Rob Epstein / 杰弗里·弗里德曼 Jeffrey Friedman
主  演 琳达·朗斯塔特 Linda Ronstadt
       Bonnie Raitt
       多莉·帕顿 Dolly Parton
       Emmylou Harris
       杰克逊·布朗恩 Jackson Browne
       Maria Muldaur
       唐·亨利 Don Henley
       大卫·格芬 David Geffen
       卡梅伦·克罗 Cameron Crowe
       亚伦·内维尔 Aaron Neville
       皮特·阿瑟 Peter Asher
       Ruben Blades
       Karla Bonoff
       John Boylor
       约翰尼·卡森 Johnny Carson
       约翰尼·卡什 Johnny Cash
       迪克·卡维特 Dick Cavett
       莱·库德 Ry Cooder
       雪儿·克劳 Sheryl Crow
       格伦·弗雷 Glenn Frey
       莱娜·霍恩 Lena Horne
       凯文·克莱恩 Kevin Kline
       史蒂薇·妮克斯 Stevie Nicks
       Nelson Riddle
       J.D. Souther
       哈利·戴恩·斯坦通 Harry Dean Stanton
       林哥·斯塔尔 Ringo Starr
       嘉丽·安德伍德 Carrie Underwood
       Hank Williams
       尼尔·杨 Neil Young


标  签 记载片 | 音乐 | 美国 | 列传 | 2019 | 2010s

简  介  

  With one of the most memorably stunning voices that has ever hit the airwaves, Linda Ronstadt burst onto the 1960s folk rock music scene in her early twenties.

获奖情况  

  第70届美国剪辑工会奖(2020)
  记载片最好剪辑(提名) Heidi Scharfe / 杰克·帕辛斯基

  第67届美国音效剪辑协会奖(2020)
  金卷轴奖 最好记载片音效剪辑(提名)
  1. Video
  2. ID                                       : 1
  3. Format                                   : AVC
  4. Format/Info                              : Advanced Video Codec
  5. Format profile                           : [email protected]
  6. Format settings                          : CABAC / 8 Ref Frames
  7. Format settings, CABAC                   : Yes
  8. Format settings, Reference frames        : 8 frames
  9. Codec ID                                 : V_MPEG4/ISO/AVC
  10. Duration                                 : 1 h 33 min
  11. Bit rate                                 : 5 159 kb/s
  12. Width                                    : 1 280 pixels
  13. Height                                   : 720 pixels
  14. Display aspect ratio                     : 16:9
  15. Frame rate mode                          : Constant
  16. Frame rate                               : 23.976 (24000/1001) FPS
  17. Color space                              : YUV
  18. Chroma subsampling                       : 4:2:0
  19. Bit depth                                : 8 bits
  20. Scan type                                : Progressive
  21. Bits/(Pixel*Frame)                       : 0.233
  22. Stream size                              : 3.38 GiB (77%)
  23. Writing library                          : x264 core 159 r2991 1771b55
  24. Encoding settings                        : cabac=1 / ref=8 / deblock=1:-3:-3 / analyse=0x3:0x133 / me=umh / subme=7 / psy=1 / psy_rd=1.00:0.00 / mixed_ref=1 / me_range=16 / chroma_me=1 / trellis=2 / 8x8dct=1 / cqm=0 / deadzone=21,11 / fast_pskip=1 / chroma_qp_offset=-2 / threads=16 / lookahead_threads=2 / sliced_threads=0 / nr=0 / decimate=1 / interlaced=0 / bluray_compat=0 / constrained_intra=0 / bframes=3 / b_pyramid=2 / b_adapt=2 / b_bias=0 / direct=3 / weightb=1 / open_gop=0 / weightp=2 / keyint=250 / keyint_min=23 / scenecut=40 / intra_refresh=0 / rc_lookahead=50 / rc=2pass / mbtree=1 / bitrate=5159 / ratetol=1.0 / qcomp=0.60 / qpmin=0 / qpmax=69 / qpstep=4 / cplxblur=20.0 / qblur=0.5 / ip_ratio=1.40 / aq=1:1.00
  25. Language                                 : English
  26. Default                                  : Yes
  27. Forced                                   : No
  28. Color range                              : Limited
  29. Matrix coefficients                      : BT.709

  30. Audio
  31. ID                                       : 2
  32. Format                                   : DTS
  33. Format/Info                              : Digital Theater Systems
  34. Codec ID                                 : A_DTS
  35. Duration                                 : 1 h 33 min
  36. Bit rate mode                            : Constant
  37. Bit rate                                 : 1 509 kb/s
  38. Channel(s)                               : 6 channels
  39. Channel layout                           : C L R Ls Rs LFE
  40. Sampling rate                            : 48.0 kHz
  41. Frame rate                               : 93.750 FPS (512 SPF)
  42. Bit depth                                : 24 bits
  43. Compression mode                         : Lossy
  44. Stream size                              : 1 013 MiB (23%)
  45. Title                                    : English
  46. Language                                 : English
  47. Default                                  : Yes
  48. Forced                                   : No

  49. Menu
  50. 00:00:00.000                             : en:Chapter 01
  51. 00:08:41.104                             : en:Chapter 02
  52. 00:21:40.090                             : en:Chapter 03
  53. 00:27:43.036                             : en:Chapter 04
  54. 00:37:03.388                             : en:Chapter 05
  55. 00:47:23.841                             : en:Chapter 06
  56. 00:55:47.469                             : en:Chapter 07
  57. 01:04:59.062                             : en:Chapter 08
  58. 01:14:44.188                             : en:Chapter 09
  59. 01:21:49.655                             : en:Chapter 10
复制代码

琳达·朗斯塔特:我的声音 Linda.Ronstadt.The.Sound.of.My.Voice.2019.720p.BluRay.x264-YOL0W 4.37GB-2.png 琳达·朗斯塔特:我的声音 Linda.Ronstadt.The.Sound.of.My.Voice.2019.720p.BluRay.x264-YOL0W 4.37GB-3.png 琳达·朗斯塔特:我的声音 Linda.Ronstadt.The.Sound.of.My.Voice.2019.720p.BluRay.x264-YOL0W 4.37GB-4.png






回复

使用道具 举报

蓝光币
3738
发表于 2020-1-26 23:16:07 | 显示全部楼层
谢谢楼主分享
回复 支持 反对

使用道具 举报

蓝光币
35
发表于 2020-5-4 22:47:34 | 显示全部楼层
没字幕怎么看
回复 支持 反对

使用道具 举报

懒得打字嘛,点击右侧快捷回复 【右侧内容,后台自定义】
您需要登录后才可以回帖 登录 | 立即加入

本版积分规则

Archiver|小黑屋| 蓝光电影网 |网站地图

Copyright © 2021 Comsenz Inc. Powered by 蓝光电影网

蓝光电影网

本站内容由用户自主分享和转载自互联网,转载目的在于传递更多信息,并不代表本网赞同其观点和对其真实性负责。

如有侵权、违反国家法律政策行为,请联系我们,我们会第一时间及时清除和处理!

举报反馈邮箱:[email protected]

快速回复 返回顶部 返回列表