找回密码

蓝光电影网

查看: 192|回复: 4

[剧情] 中途客栈 The.Halfway.House.1944.720p.BluRay.x264-GHOULS 4.38GB

[复制链接]
蓝光币
426
发表于 2020-1-23 13:43:37 | 显示全部楼层 |阅读模式
中途堆栈 The.Halfway.House.1944.720p.BluRay.x264-GHOULS 4.38GB-1.png

译  名 中途堆栈
片  名 The Halfway House
年  代 1944
产  地 英国
类  别 剧情 / 悬疑 / 奇异
语  言 英语
上映日期 1944
IMDb评分  6.9/10 from 530 users
IMDb链接  https://www.imdb.com/title/tt0035962
豆瓣评分 0/10 from 0 users
豆瓣链接 https://movie.douban.com/subject/4132347/
片  长 95 分钟
导  演 Basil Dearden / Alberto Cavalcanti
编  剧 Denis Ogden / Angus MacPhail / Diana Morgan / Roland Pertwee / T.E.B. Clarke

标  签 英国电影 | 奇异 | +ut

简  介  

  A group of travellers, all with something to hide in their past, take shelter from a storm in an old inn. The inn-keeper seems a little mysterious...
  1. Video
  2. ID                                       : 1
  3. Format                                   : AVC
  4. Format/Info                              : Advanced Video Codec
  5. Format profile                           : [email protected]
  6. Format settings                          : CABAC / 11 Ref Frames
  7. Format settings, CABAC                   : Yes
  8. Format settings, Reference frames        : 11 frames
  9. Codec ID                                 : V_MPEG4/ISO/AVC
  10. Duration                                 : 1 h 35 min
  11. Bit rate                                 : 5 936 kb/s
  12. Width                                    : 992 pixels
  13. Height                                   : 720 pixels
  14. Display aspect ratio                     : 1.378
  15. Frame rate mode                          : Constant
  16. Frame rate                               : 24.000 FPS
  17. Color space                              : YUV
  18. Chroma subsampling                       : 4:2:0
  19. Bit depth                                : 8 bits
  20. Scan type                                : Progressive
  21. Bits/(Pixel*Frame)                       : 0.346
  22. Stream size                              : 3.97 GiB (91%)
  23. Writing library                          : x264 core 159 r2991 1771b55
  24. Encoding settings                        : cabac=1 / ref=11 / deblock=1:-3:-3 / analyse=0x3:0x133 / me=umh / subme=9 / psy=1 / psy_rd=1.00:0.00 / mixed_ref=1 / me_range=24 / chroma_me=1 / trellis=1 / 8x8dct=1 / cqm=0 / deadzone=21,11 / fast_pskip=0 / chroma_qp_offset=-2 / threads=22 / lookahead_threads=3 / sliced_threads=0 / nr=0 / decimate=1 / interlaced=0 / bluray_compat=0 / constrained_intra=0 / bframes=8 / b_pyramid=2 / b_adapt=2 / b_bias=0 / direct=3 / weightb=1 / open_gop=0 / weightp=2 / keyint=250 / keyint_min=24 / scenecut=40 / intra_refresh=0 / rc_lookahead=60 / rc=2pass / mbtree=1 / bitrate=5936 / ratetol=1.0 / qcomp=0.60 / qpmin=0 / qpmax=69 / qpstep=4 / cplxblur=20.0 / qblur=0.5 / vbv_maxrate=62500 / vbv_bufsize=78125 / nal_hrd=none / filler=0 / ip_ratio=1.40 / aq=1:1.00
  25. Default                                  : Yes
  26. Forced                                   : No

  27. Audio
  28. ID                                       : 2
  29. Format                                   : FLAC
  30. Format/Info                              : Free Lossless Audio Codec
  31. Codec ID                                 : A_FLAC
  32. Duration                                 : 1 h 35 min
  33. Bit rate mode                            : Variable
  34. Bit rate                                 : 600 kb/s
  35. Channel(s)                               : 2 channels
  36. Channel layout                           : L R
  37. Sampling rate                            : 48.0 kHz
  38. Frame rate                               : 10.417 FPS (4608 SPF)
  39. Bit depth                                : 24 bits
  40. Compression mode                         : Lossless
  41. Stream size                              : 411 MiB (9%)
  42. Writing library                          : Lavf58.29.100
  43. Language                                 : English
  44. Default                                  : Yes
  45. Forced                                   : No

  46. Menu
  47. 00:00:00.000                             : en:Chapter 01
  48. 00:06:53.167                             : en:Chapter 02
  49. 00:14:32.625                             : en:Chapter 03
  50. 00:20:29.792                             : en:Chapter 04
  51. 00:28:44.500                             : en:Chapter 05
  52. 00:37:00.125                             : en:Chapter 06
  53. 00:44:44.708                             : en:Chapter 07
  54. 00:55:01.292                             : en:Chapter 08
  55. 01:00:27.875                             : en:Chapter 09
  56. 01:09:46.833                             : en:Chapter 10
  57. 01:16:30.125                             : en:Chapter 11
  58. 01:24:05.875                             : en:Chapter 12
复制代码

中途堆栈 The.Halfway.House.1944.720p.BluRay.x264-GHOULS 4.38GB-2.png






回复

使用道具 举报

蓝光币
3738
发表于 2020-1-25 01:05:06 | 显示全部楼层
谢谢楼主分享
回复 支持 反对

使用道具 举报

懒得打字嘛,点击右侧快捷回复 【右侧内容,后台自定义】
您需要登录后才可以回帖 登录 | 立即加入

本版积分规则

Archiver|小黑屋| 蓝光电影网 |网站地图

Copyright © 2021 Comsenz Inc. Powered by 蓝光电影网

蓝光电影网

本站内容由用户自主分享和转载自互联网,转载目的在于传递更多信息,并不代表本网赞同其观点和对其真实性负责。

如有侵权、违反国家法律政策行为,请联系我们,我们会第一时间及时清除和处理!

举报反馈邮箱:[email protected]

快速回复 返回顶部 返回列表