找回密码

蓝光电影网

查看: 3421|回复: 4

[剧情] 德川女性酷刑 双牛裂身 The.Joy.of.Torture.2.Oxen.Split.Torturing.1976.JAPANESE.1080p.BluRay.x264.DTS-FGT 7.28GB

[复制链接]
蓝光币
426
发表于 2020-1-23 14:21:30 | 显示全部楼层 |阅读模式
德川女性严刑 双牛裂身 The.Joy.of.Torture.2.Oxen.Split.Torturing.1976.JAPANESE.1080p.BluRay.x264.DTS-FGT 7.28GB-1.png

译  名 德川女性严刑 双牛裂身 / Shogun's Sadism / The Joy of Torture 2: Oxen Split Torturing
片  名 徳川女刑罰絵巻 牛裂きの刑
年  代 1976
产  地 日本
类  别 剧情 / 可骇
语  言 日语
上映日期 1976-09-04
IMDb评分  5.8/10 from 529 users
IMDb链接  https://www.imdb.com/title/tt0367151
豆瓣评分 6.5/10 from 416 users
豆瓣链接 https://movie.douban.com/subject/3204790/
片  长 80分钟
导  演 牧口雄二
编  剧 志村正浩 / 大津一郎
主  演 風戸佑介
       汐路章
       橘麻紀


标  签 日本 | 情色 | Cult | 暴力 | 日本电影 | 变态 | 电影 | 日本,变态

简  介  

  影片报告德川期间发生的两个残暴故事:
  牛裂篇:长崎当地官员高坂主膳(汐路章 饰)残暴成性,发现各类严刑迫害基督教徒。在官府奉职的佐佐木伊织(风户佑介 饰)与女孩登世(内村レナ 饰)相爱,然登世一家为基督徒,未几也被抓进官府。登世怙恃不胜熬煎,相继惨死,妹妹亦被烫瞎双眼。得知内幕的高坂成心在伊织眼前欺侮登世,并将其并吞,令二人疾苦不已。一年后,沦为游勇的伊织带登世逃窜,途中伊织被高坂杀戮,登世则因通奸罪蒙受了残暴的牛裂之刑。
  锯刑篇:妄想吃苦的舍藏(川谷拓三 饰)逛青楼无钱付帐,被逼做工了偿,时代目击了妓女们所蒙受的各种熬煎。舍藏没法继续忍受,偕相好的妓女大里(橘麻纪 饰)流亡,靠“仙人跳”为生,中心闹出很多笑话。后二人被官府缉捕,蒙受一系列疾苦刑法……
  1. Video
  2. ID                                       : 1
  3. Format                                   : AVC
  4. Format/Info                              : Advanced Video Codec
  5. Format profile                           : [email protected]
  6. Format settings                          : CABAC / 4 Ref Frames
  7. Format settings, CABAC                   : Yes
  8. Format settings, Reference frames        : 4 frames
  9. Codec ID                                 : V_MPEG4/ISO/AVC
  10. Duration                                 : 1 h 20 min
  11. Bit rate                                 : 11.5 Mb/s
  12. Width                                    : 1 920 pixels
  13. Height                                   : 816 pixels
  14. Display aspect ratio                     : 2.35:1
  15. Frame rate mode                          : Constant
  16. Frame rate                               : 23.976 (24000/1001) FPS
  17. Color space                              : YUV
  18. Chroma subsampling                       : 4:2:0
  19. Bit depth                                : 8 bits
  20. Scan type                                : Progressive
  21. Bits/(Pixel*Frame)                       : 0.306
  22. Stream size                              : 6.43 GiB (88%)
  23. Title                                    : The.Joy.of.Torture.2.Oxen.Split.Torturing.1976.JAPANESE.1080p.BluRay.x264.DTS-FGT
  24. Writing library                          : x264 core 148 r2795M aaa9aa8
  25. Encoding settings                        : cabac=1 / ref=4 / deblock=1:-2:-2 / analyse=0x3:0x113 / me=umh / subme=9 / psy=1 / psy_rd=1.00:0.15 / mixed_ref=1 / me_range=16 / chroma_me=1 / trellis=2 / 8x8dct=1 / cqm=0 / deadzone=21,11 / fast_pskip=1 / chroma_qp_offset=-3 / threads=24 / lookahead_threads=3 / sliced_threads=0 / nr=0 / decimate=1 / interlaced=0 / bluray_compat=0 / constrained_intra=0 / bframes=3 / b_pyramid=2 / b_adapt=1 / b_bias=0 / direct=3 / weightb=1 / open_gop=0 / weightp=2 / keyint=250 / keyint_min=25 / scenecut=40 / intra_refresh=0 / rc_lookahead=50 / rc=2pass / mbtree=1 / bitrate=11500 / ratetol=1.0 / qcomp=0.60 / qpmin=0 / qpmax=69 / qpstep=4 / cplxblur=20.0 / qblur=0.5 / vbv_maxrate=31250 / vbv_bufsize=31250 / nal_hrd=none / filler=0 / ip_ratio=1.40 / aq=1:1.00
  26. Language                                 : Japanese
  27. Default                                  : Yes
  28. Forced                                   : No

  29. Audio
  30. ID                                       : 2
  31. Format                                   : DTS
  32. Format/Info                              : Digital Theater Systems
  33. Codec ID                                 : A_DTS
  34. Duration                                 : 1 h 20 min
  35. Bit rate mode                            : Constant
  36. Bit rate                                 : 1 509 kb/s
  37. Channel(s)                               : 2 channels
  38. Channel layout                           : L R
  39. Sampling rate                            : 48.0 kHz
  40. Frame rate                               : 93.750 FPS (512 SPF)
  41. Bit depth                                : 24 bits
  42. Compression mode                         : Lossy
  43. Stream size                              : 864 MiB (12%)
  44. Title                                    : The.Joy.of.Torture.2.Oxen.Split.Torturing.1976.JAPANESE.1080p.BluRay.x264.DTS-FGT
  45. Language                                 : Japanese
  46. Default                                  : Yes
  47. Forced                                   : No

  48. Text
  49. ID                                       : 3
  50. Format                                   : UTF-8
  51. Codec ID                                 : S_TEXT/UTF8
  52. Codec ID/Info                            : UTF-8 Plain Text
  53. Duration                                 : 1 h 19 min
  54. Bit rate                                 : 26 b/s
  55. Count of elements                        : 537
  56. Stream size                              : 15.4 KiB (0%)
  57. Language                                 : English
  58. Default                                  : Yes
  59. Forced                                   : No

  60. Menu
  61. 00:00:00.000                             : en:Chapter 01
  62. 00:02:50.420                             : en:Chapter 02
  63. 00:08:49.112                             : en:Chapter 03
  64. 00:14:45.885                             : en:Chapter 04
  65. 00:24:01.732                             : en:Chapter 05
  66. 00:32:20.188                             : en:Chapter 06
  67. 00:40:40.563                             : en:Chapter 07
  68. 00:46:10.309                             : en:Chapter 08
  69. 00:51:28.085                             : en:Chapter 09
  70. 01:01:24.431                             : en:Chapter 10
  71. 01:10:26.514                             : en:Chapter 11
  72. 01:15:14.885                             : en:Chapter 12
复制代码

德川女性严刑 双牛裂身 The.Joy.of.Torture.2.Oxen.Split.Torturing.1976.JAPANESE.1080p.BluRay.x264.DTS-FGT 7.28GB-2.png 德川女性严刑 双牛裂身 The.Joy.of.Torture.2.Oxen.Split.Torturing.1976.JAPANESE.1080p.BluRay.x264.DTS-FGT 7.28GB-3.png 德川女性严刑 双牛裂身 The.Joy.of.Torture.2.Oxen.Split.Torturing.1976.JAPANESE.1080p.BluRay.x264.DTS-FGT 7.28GB-4.png






回复

使用道具 举报

蓝光币
454
发表于 2020-1-24 10:11:13 | 显示全部楼层
楼主发贴辛苦了,谢谢楼主分享!我觉得蓝光电影网是注册对了!
回复 支持 反对

使用道具 举报

蓝光币
115
发表于 2020-1-25 19:08:57 | 显示全部楼层

其实我一直觉得楼主的品味不错!呵呵!蓝光电影网太棒了!
回复 支持 反对

使用道具 举报

蓝光币
18
发表于 2020-2-11 15:29:06 | 显示全部楼层
楼主发贴辛苦了
回复 支持 反对

使用道具 举报

蓝光币
558
发表于 2020-2-19 16:50:41 | 显示全部楼层
楼主发贴辛苦了,谢谢楼主分享!我觉得蓝光电影网是注册对了!
回复 支持 反对

使用道具 举报

懒得打字嘛,点击右侧快捷回复 【右侧内容,后台自定义】
您需要登录后才可以回帖 登录 | 立即加入

本版积分规则

Archiver|小黑屋| 蓝光电影网 |网站地图

Copyright © 2021 Comsenz Inc. Powered by 蓝光电影网

蓝光电影网

本站内容由用户自主分享和转载自互联网,转载目的在于传递更多信息,并不代表本网赞同其观点和对其真实性负责。

如有侵权、违反国家法律政策行为,请联系我们,我们会第一时间及时清除和处理!

举报反馈邮箱:[email protected]

快速回复 返回顶部 返回列表