找回密码

蓝光电影网

查看: 757|回复: 3

[剧情] 恶梦 Nightmare.in.Badham.County.1976.1080p.BluRay.x264.DTS-FGT 9.23GB

[复制链接]
蓝光币
426
发表于 2020-1-23 14:24:11 | 显示全部楼层 |阅读模式
噩梦 Nightmare.in.Badham.County.1976.1080p.BluRay.x264.DTS-FGT 9.23GB-1.png

译  名 噩梦
片  名 Nightmare in Badham County
年  代 1976
产  地 美国
类  别 剧情 / 惊悚
语  言 英语
上映日期 1976-11-05
IMDb评分  6.2/10 from 350 users
IMDb链接  https://www.imdb.com/title/tt0074967
豆瓣评分 7.4/10 from 50 users
豆瓣链接 https://movie.douban.com/subject/4008991/
片  长 100分钟
导  演 约翰·卢埃林·摩西
编  剧 乔·海姆斯 Jo Heims
主  演 德博拉·拉芬 Deborah Raffin


标  签 美国电影 | 美国 | 惊悚 | 犯罪 | 剧情 | 童年回忆 | 70s | 被轻忽的电影

简  介  

  她们所驾驶的红色小轿车的忽然爆胎,请过路的黑人司机乔治帮手换了一个新胎。这时正巧遇上本县保长蒂姆,这个坏家伙不准姑娘付钱给乔治。黛安不听蒂姆那一套,给了乔治钱,并在加油站的小咖啡馆里顶撞和戏言了这只使人厌恶的苍蝇——蒂姆保长。
  大发雷霆的蒂姆让加油站工人故意耽搁汽车的修理,两个姑娘只好到四周的树林里留宿。蒂姆即以不法侵入他人地盘的罪名拘系了两个姑娘,加以报复。无耻的蒂姆还奸污了黑人姑娘黛安……,这两个在大城市长大的姑娘怎样也想不到会发生这一切。她们非常悲愤,天真的姑娘依照黉舍给她们的教育,深信美国的法令。第二天在法庭上,她们揭穿蒂姆的罪行,可是法庭强加在姑娘们身上的是更大的迫害,加油站工人也做伪证,法官居然成心以比姆的诬陷为按照,指责她们俩人奥秘卖淫,并宣判她俩在拜德哈姆县女犯农场做三十天苦役。凯茜根据法令规定,要求向家人打电话也遭到蛮横拒绝。
  女犯农场是个暗无天日的天堂,谁如果勇于冒犯这儿的规矩,轻则鞭打,重则弄死。一个才十五岁的小姑娘艾米莱恩进来未几就遭参加长践踏而死去。这里看管监犯的女看管美满是白人,格丽尔、斯梅蒂......她们暴戾成性。
  凯茜和黛安忍受不了这类非人的生活。凯茜操纵场长宴客让她当招待的机遇,想给父亲打个电话,可是被看管斯梅蒂发现,遭到鞭打。凯茜又操纵去县城送蔬菜之际,托小咖啡馆女招待给她父亲打电话,又被密告,遭到一顿暴打。黛安也不宁愿,她趁一次家属探监的机遇偷偷地溜进大轿车,又被看管斯梅蒂发现。不幸的黛何在又小又黑的黑屋里整整关了一个星期,熬煎得差不多死去。
  凯茜和黛安不甘忍受屈辱,她们在黑人女犯塞拉、阿尔玛的帮助下,操纵在蚕豆地干活的机遇逃出了农场。可是,她俩出逃未几,蒂姆已跟踪而来。黛安开汽车引走蒂姆,让凯茜可以打电话告诉家人前来救援。凯茜终究和父亲通了电话,凯茜刚放下电话,就被赶来的女看管们捉住,又被带回了农场……。而驾车引开蒂姆的黛安,汽车被蒂姆撞坏,在试图逃窜时,被蒂姆开枪射杀。第二天凯茜的父亲赶来,凯茜终究获救。黛安却永久跟好多人一路,被埋在这个可咀咒的天堂里......
  懒得开贴了 上译 http://img.namipan.com/downfile/ ... %89%e5%bd%b1%e8%99%
  1. Video
  2. ID                                       : 1
  3. Format                                   : AVC
  4. Format/Info                              : Advanced Video Codec
  5. Format profile                           : [email protected]
  6. Format settings                          : CABAC / 4 Ref Frames
  7. Format settings, CABAC                   : Yes
  8. Format settings, Reference frames        : 4 frames
  9. Codec ID                                 : V_MPEG4/ISO/AVC
  10. Duration                                 : 1 h 41 min
  11. Bit rate                                 : 11.5 Mb/s
  12. Width                                    : 1 920 pixels
  13. Height                                   : 1 036 pixels
  14. Display aspect ratio                     : 1.85:1
  15. Frame rate mode                          : Constant
  16. Frame rate                               : 23.976 (24000/1001) FPS
  17. Color space                              : YUV
  18. Chroma subsampling                       : 4:2:0
  19. Bit depth                                : 8 bits
  20. Scan type                                : Progressive
  21. Bits/(Pixel*Frame)                       : 0.241
  22. Stream size                              : 8.16 GiB (88%)
  23. Title                                    : Nightmare.in.Badham.County.1976.1080p.BluRay.x264.DTS-FGT
  24. Writing library                          : x264 core 148 r2795M aaa9aa8
  25. Encoding settings                        : cabac=1 / ref=4 / deblock=1:-2:-2 / analyse=0x3:0x113 / me=umh / subme=9 / psy=1 / psy_rd=1.00:0.15 / mixed_ref=1 / me_range=16 / chroma_me=1 / trellis=2 / 8x8dct=1 / cqm=0 / deadzone=21,11 / fast_pskip=1 / chroma_qp_offset=-3 / threads=24 / lookahead_threads=3 / sliced_threads=0 / nr=0 / decimate=1 / interlaced=0 / bluray_compat=0 / constrained_intra=0 / bframes=3 / b_pyramid=2 / b_adapt=1 / b_bias=0 / direct=3 / weightb=1 / open_gop=0 / weightp=2 / keyint=250 / keyint_min=25 / scenecut=40 / intra_refresh=0 / rc_lookahead=50 / rc=2pass / mbtree=1 / bitrate=11500 / ratetol=1.0 / qcomp=0.60 / qpmin=0 / qpmax=69 / qpstep=4 / cplxblur=20.0 / qblur=0.5 / vbv_maxrate=31250 / vbv_bufsize=31250 / nal_hrd=none / filler=0 / ip_ratio=1.40 / aq=1:1.00
  26. Language                                 : English
  27. Default                                  : Yes
  28. Forced                                   : No

  29. Audio
  30. ID                                       : 2
  31. Format                                   : DTS
  32. Format/Info                              : Digital Theater Systems
  33. Codec ID                                 : A_DTS
  34. Duration                                 : 1 h 41 min
  35. Bit rate mode                            : Constant
  36. Bit rate                                 : 1 509 kb/s
  37. Channel(s)                               : 2 channels
  38. Channel layout                           : L R
  39. Sampling rate                            : 48.0 kHz
  40. Frame rate                               : 93.750 FPS (512 SPF)
  41. Bit depth                                : 16 bits
  42. Compression mode                         : Lossy
  43. Stream size                              : 1.07 GiB (12%)
  44. Title                                    : Nightmare.in.Badham.County.1976.1080p.BluRay.x264.DTS-FGT
  45. Language                                 : English
  46. Default                                  : Yes
  47. Forced                                   : No

  48. Menu
  49. 00:00:00.000                             : en:Chapter 01
  50. 00:11:46.580                             : en:Chapter 02
  51. 00:23:23.402                             : en:Chapter 03
  52. 00:38:38.441                             : en:Chapter 04
  53. 00:50:44.332                             : en:Chapter 05
  54. 01:03:55.540                             : en:Chapter 06
  55. 01:19:17.252                             : en:Chapter 07
  56. 01:32:42.557                             : en:Chapter 08
复制代码

噩梦 Nightmare.in.Badham.County.1976.1080p.BluRay.x264.DTS-FGT 9.23GB-2.png 噩梦 Nightmare.in.Badham.County.1976.1080p.BluRay.x264.DTS-FGT 9.23GB-3.png 噩梦 Nightmare.in.Badham.County.1976.1080p.BluRay.x264.DTS-FGT 9.23GB-1.png






回复

使用道具 举报

蓝光币
308
发表于 2020-1-24 06:50:04 | 显示全部楼层
谢谢楼主分享,这片当年上海译制厂配音过。
回复 支持 反对

使用道具 举报

懒得打字嘛,点击右侧快捷回复 【右侧内容,后台自定义】
您需要登录后才可以回帖 登录 | 立即加入

本版积分规则

Archiver|小黑屋| 蓝光电影网 |网站地图

Copyright © 2021 Comsenz Inc. Powered by 蓝光电影网

蓝光电影网

本站内容由用户自主分享和转载自互联网,转载目的在于传递更多信息,并不代表本网赞同其观点和对其真实性负责。

如有侵权、违反国家法律政策行为,请联系我们,我们会第一时间及时清除和处理!

举报反馈邮箱:[email protected]

快速回复 返回顶部 返回列表