找回密码

蓝光电影网

查看: 481|回复: 3

[剧情] 壮志千秋 Cimarron.1960.1080p.BluRay.x264.DTS-FGT 13.41GB

[复制链接]
蓝光币
426
发表于 2020-1-23 14:26:53 | 显示全部楼层 |阅读模式
壮志千秋 Cimarron.1960.1080p.BluRay.x264.DTS-FGT 13.41GB-1.png

译  名 壮志千秋
片  名 Cimarron
年  代 1960
产  地 美国
类  别 剧情 / 西部
语  言 英语
上映日期 1961-03-24
IMDb评分  6.4/10 from 2434 users
IMDb链接  https://www.imdb.com/title/tt0053715
豆瓣评分 0/10 from 0 users
豆瓣链接 https://movie.douban.com/subject/2051852/
片  长 147 分钟
导  演 Anthony Mann / Charles Walters
编  剧 阿诺德·舒曼 Arnold Schulman / 艾德娜·费勃 Edna Ferber
主  演 格伦·福特 Glenn Ford
       玛丽亚·雪儿 Maria Schell
       安妮·巴克斯特 Anne Baxter


标  签 1960 | 西部片 | 西部 | 安妮·巴克斯特 | M美国 | 太古范例西部片 | 老电影 | 美国

简  介  

  Sorry but despite the fact that the 1931 version of this novel was the only western film to win an Academy Award for Best Picture it does not compare to the entertainment value of this version. True this is perhaps not the best adaptation of Ms. Ferber's novel, but then how many films are perfect adaptations of their source material. There are wonderful scenes missing from this adaptation, but then there are wonderful scenes missing from the adaptation of GWTW. No, I am not comparing this to a classic like GWTW. But the '31 version is not in the same class as GWTW either. This film should be taken for what it actually is, a good solid epic entertainment with spectacular scenes and good performances. Glenn Ford is perfect casting for Yancy. His performance is far superior to that of the overripe, stilted scenery chewing one delivered by Richard Dix in the original. Ford's boyish manner easily captures the charming immature nature of the character. Maria Schell is on a par with Irene Dunne. It is a pity her character was rewritten from the novel to be weaker than Ferber intended. This was obviously done to make the film Ford's but she's still gives a performance that is on the money. As so do the myriad supporting players in the film. Back in 1960, MGM obviously needed a big movie to move into the theaters that had been playing "Ben-Hur" for over a year. So this production was rushed to completion to fit the bill. The fact that it was shot in Cinemascope instead of a "Big" 70 mm process is evidence of this. It has been written that the production was shut down before the scripted ending could be filmed. This explains the rather abrupt and somewhat awkward end to the film. Perhaps a regular non "Roadshow" release might have fared better both with the critics and at the box-office. It often seems that those who praise the older version over this film have seldom actually seen the former. For many years the 1931 version was not available for viewing. During that period many film historians gushed in their praise of it. When it finally reappeared on screens most of them found it very creaky and revised their opinions but the older opinions are still in print, available and read. True, they didn't change their opinion of this version, but the older fell into proper perspective...Cinema History and rather dry history at that. While this version is not a classic it remains good entertainment. Compare it to "How The West Was Won" made by the same studio just a few years later.

获奖情况  

  第33届奥斯卡金像奖(1961)
  最好声响(提名) 富兰克林·米尔顿
  彩色片最好艺术指导和布景(提名) 休·亨特 / Otto Siegel / 乔治·W·戴维斯 / Addison Hehr / 亨利·格雷斯
  1. Video
  2. ID                                       : 1
  3. Format                                   : AVC
  4. Format/Info                              : Advanced Video Codec
  5. Format profile                           : [email protected]
  6. Format settings                          : CABAC / 4 Ref Frames
  7. Format settings, CABAC                   : Yes
  8. Format settings, Reference frames        : 4 frames
  9. Codec ID                                 : V_MPEG4/ISO/AVC
  10. Duration                                 : 2 h 27 min
  11. Bit rate                                 : 11.5 Mb/s
  12. Width                                    : 1 920 pixels
  13. Height                                   : 816 pixels
  14. Display aspect ratio                     : 2.35:1
  15. Frame rate mode                          : Constant
  16. Frame rate                               : 23.976 (24000/1001) FPS
  17. Color space                              : YUV
  18. Chroma subsampling                       : 4:2:0
  19. Bit depth                                : 8 bits
  20. Scan type                                : Progressive
  21. Bits/(Pixel*Frame)                       : 0.306
  22. Stream size                              : 11.8 GiB (88%)
  23. Title                                    : Cimarron.1960.1080p.BluRay.x264.DTS-FGT
  24. Writing library                          : x264 core 148 r2748 97eaef2
  25. Encoding settings                        : cabac=1 / ref=4 / deblock=1:-2:-2 / analyse=0x3:0x113 / me=umh / subme=9 / psy=1 / psy_rd=1.00:0.15 / mixed_ref=1 / me_range=16 / chroma_me=1 / trellis=2 / 8x8dct=1 / cqm=0 / deadzone=21,11 / fast_pskip=1 / chroma_qp_offset=-3 / threads=72 / lookahead_threads=3 / sliced_threads=0 / nr=0 / decimate=1 / interlaced=0 / bluray_compat=0 / constrained_intra=0 / bframes=3 / b_pyramid=2 / b_adapt=1 / b_bias=0 / direct=3 / weightb=1 / open_gop=0 / weightp=2 / keyint=250 / keyint_min=25 / scenecut=40 / intra_refresh=0 / rc_lookahead=50 / rc=2pass / mbtree=1 / bitrate=11500 / ratetol=1.0 / qcomp=0.60 / qpmin=0 / qpmax=69 / qpstep=4 / cplxblur=20.0 / qblur=0.5 / vbv_maxrate=31250 / vbv_bufsize=31250 / nal_hrd=none / filler=0 / ip_ratio=1.40 / aq=1:1.00
  26. Language                                 : English
  27. Default                                  : Yes
  28. Forced                                   : No

  29. Audio
  30. ID                                       : 2
  31. Format                                   : DTS
  32. Format/Info                              : Digital Theater Systems
  33. Codec ID                                 : A_DTS
  34. Duration                                 : 2 h 27 min
  35. Bit rate mode                            : Constant
  36. Bit rate                                 : 1 509 kb/s
  37. Channel(s)                               : 2 channels
  38. Channel layout                           : L R
  39. Sampling rate                            : 48.0 kHz
  40. Frame rate                               : 93.750 FPS (512 SPF)
  41. Bit depth                                : 24 bits
  42. Compression mode                         : Lossy
  43. Stream size                              : 1.55 GiB (12%)
  44. Title                                    : Cimarron.1960.1080p.BluRay.x264.DTS-FGT
  45. Language                                 : English
  46. Default                                  : Yes
  47. Forced                                   : No

  48. Text
  49. ID                                       : 3
  50. Format                                   : UTF-8
  51. Codec ID                                 : S_TEXT/UTF8
  52. Codec ID/Info                            : UTF-8 Plain Text
  53. Duration                                 : 2 h 27 min
  54. Bit rate                                 : 64 b/s
  55. Count of elements                        : 2600
  56. Stream size                              : 69.7 KiB (0%)
  57. Language                                 : English
  58. Default                                  : Yes
  59. Forced                                   : No

  60. Menu
  61. 00:00:00.000                             : en:Chapter 01
  62. 00:02:06.167                             : en:Chapter 02
  63. 00:02:42.245                             : en:Chapter 03
  64. 00:03:40.720                             : en:Chapter 04
  65. 00:07:33.327                             : en:Chapter 05
  66. 00:09:22.478                             : en:Chapter 06
  67. 00:13:29.058                             : en:Chapter 07
  68. 00:18:09.088                             : en:Chapter 08
  69. 00:20:36.610                             : en:Chapter 09
  70. 00:24:45.358                             : en:Chapter 10
  71. 00:28:45.265                             : en:Chapter 11
  72. 00:33:38.016                             : en:Chapter 12
  73. 00:37:55.147                             : en:Chapter 13
  74. 00:43:30.691                             : en:Chapter 14
  75. 00:48:37.539                             : en:Chapter 15
  76. 00:51:35.467                             : en:Chapter 16
  77. 00:54:42.654                             : en:Chapter 17
  78. 00:58:25.502                             : en:Chapter 18
  79. 01:03:22.590                             : en:Chapter 19
  80. 01:07:30.713                             : en:Chapter 20
  81. 01:11:35.332                             : en:Chapter 21
  82. 01:17:48.330                             : en:Chapter 22
  83. 01:23:50.859                             : en:Chapter 23
  84. 01:28:30.972                             : en:Chapter 24
  85. 01:32:57.613                             : en:Chapter 25
  86. 01:36:59.396                             : en:Chapter 26
  87. 01:40:37.364                             : en:Chapter 27
  88. 01:45:46.590                             : en:Chapter 28
  89. 01:50:21.281                             : en:Chapter 29
  90. 01:54:36.578                             : en:Chapter 30
  91. 02:00:21.380                             : en:Chapter 31
  92. 02:05:35.069                             : en:Chapter 32
  93. 02:09:18.459                             : en:Chapter 33
  94. 02:13:00.597                             : en:Chapter 34
  95. 02:17:07.969                             : en:Chapter 35
  96. 02:23:05.785                             : en:Chapter 36
  97. 02:24:55.353                             : en:Chapter 37
  98. 02:27:17.954                             : en:Chapter 38
  99. 02:27:29.924                             : en:Chapter 39
复制代码

壮志千秋 Cimarron.1960.1080p.BluRay.x264.DTS-FGT 13.41GB-2.png 壮志千秋 Cimarron.1960.1080p.BluRay.x264.DTS-FGT 13.41GB-3.png 壮志千秋 Cimarron.1960.1080p.BluRay.x264.DTS-FGT 13.41GB-4.png






回复

使用道具 举报

蓝光币
1484
发表于 2020-1-23 15:14:56 | 显示全部楼层
楼主发贴辛苦了,谢谢楼主分享!我觉得蓝光电影网是注册对了!
回复 支持 反对

使用道具 举报

懒得打字嘛,点击右侧快捷回复 【右侧内容,后台自定义】
您需要登录后才可以回帖 登录 | 立即加入

本版积分规则

Archiver|小黑屋| 蓝光电影网 |网站地图

Copyright © 2021 Comsenz Inc. Powered by 蓝光电影网

蓝光电影网

本站内容由用户自主分享和转载自互联网,转载目的在于传递更多信息,并不代表本网赞同其观点和对其真实性负责。

如有侵权、违反国家法律政策行为,请联系我们,我们会第一时间及时清除和处理!

举报反馈邮箱:[email protected]

快速回复 返回顶部 返回列表