找回密码

蓝光电影网

查看: 742|回复: 6

[恐怖] 机动堡垒 Battletruck.1982.1080p.BluRay.x264.DTS-FGT 7.90GB

[复制链接]
蓝光币
426
发表于 2020-1-23 14:27:48 | 显示全部楼层 |阅读模式
灵活堡垒 Battletruck.1982.1080p.BluRay.x264.DTS-FGT 7.90GB-1.png

译  名 灵活堡垒 / Battletruck
片  名 Warlords of the 21st Century
年  代 1982
产  地 新西兰
类  别 行动 / 科幻 / 冒险
语  言 英语
上映日期 1982-07-01
IMDb评分  5.1/10 from 992 users
IMDb链接  https://www.imdb.com/title/tt0084887
豆瓣评分 0/10 from 0 users
豆瓣链接 https://movie.douban.com/subject/1296760/
片  长 USA: 91 分钟
导  演 哈利·柯克利斯 Harley Cokeliss
编  剧 哈利·柯克利斯 Harley Cokeliss / Irving Austin / John Beech
主  演 迈克尔·贝克 Michael Beck
       Annie McEnroe
       James Wainwright
       布鲁诺·劳伦斯 Bruno Lawrence
       约翰·贝西 John Bach
       Randy Powell


标  签 科幻 | 行动 | Sci-Fi | B级片 | 新西兰电影

简  介  

  暂无相关剧情先容
  1. Video
  2. ID                                       : 1
  3. Format                                   : AVC
  4. Format/Info                              : Advanced Video Codec
  5. Format profile                           : [email protected]
  6. Format settings                          : CABAC / 4 Ref Frames
  7. Format settings, CABAC                   : Yes
  8. Format settings, Reference frames        : 4 frames
  9. Codec ID                                 : V_MPEG4/ISO/AVC
  10. Duration                                 : 1 h 32 min
  11. Bit rate                                 : 11.5 Mb/s
  12. Width                                    : 1 920 pixels
  13. Height                                   : 1 036 pixels
  14. Display aspect ratio                     : 1.85:1
  15. Frame rate mode                          : Constant
  16. Frame rate                               : 23.976 (24000/1001) FPS
  17. Color space                              : YUV
  18. Chroma subsampling                       : 4:2:0
  19. Bit depth                                : 8 bits
  20. Scan type                                : Progressive
  21. Bits/(Pixel*Frame)                       : 0.241
  22. Stream size                              : 7.40 GiB (94%)
  23. Title                                    : Battletruck.1982.1080p.BluRay.x264.DTS-FGT
  24. Writing library                          : x264 core 148 r2795M aaa9aa8
  25. Encoding settings                        : cabac=1 / ref=4 / deblock=1:-2:-2 / analyse=0x3:0x113 / me=umh / subme=9 / psy=1 / psy_rd=1.00:0.15 / mixed_ref=1 / me_range=16 / chroma_me=1 / trellis=2 / 8x8dct=1 / cqm=0 / deadzone=21,11 / fast_pskip=1 / chroma_qp_offset=-3 / threads=24 / lookahead_threads=3 / sliced_threads=0 / nr=0 / decimate=1 / interlaced=0 / bluray_compat=0 / constrained_intra=0 / bframes=3 / b_pyramid=2 / b_adapt=1 / b_bias=0 / direct=3 / weightb=1 / open_gop=0 / weightp=2 / keyint=250 / keyint_min=25 / scenecut=40 / intra_refresh=0 / rc_lookahead=50 / rc=2pass / mbtree=1 / bitrate=11500 / ratetol=1.0 / qcomp=0.60 / qpmin=0 / qpmax=69 / qpstep=4 / cplxblur=20.0 / qblur=0.5 / vbv_maxrate=31250 / vbv_bufsize=31250 / nal_hrd=none / filler=0 / ip_ratio=1.40 / aq=1:1.00
  26. Language                                 : English
  27. Default                                  : Yes
  28. Forced                                   : No

  29. Audio
  30. ID                                       : 2
  31. Format                                   : DTS
  32. Format/Info                              : Digital Theater Systems
  33. Codec ID                                 : A_DTS
  34. Duration                                 : 1 h 32 min
  35. Bit rate mode                            : Constant
  36. Bit rate                                 : 768 kb/s
  37. Channel(s)                               : 2 channels
  38. Channel layout                           : L R
  39. Sampling rate                            : 48.0 kHz
  40. Frame rate                               : 93.750 FPS (512 SPF)
  41. Bit depth                                : 16 bits
  42. Compression mode                         : Lossy
  43. Stream size                              : 507 MiB (6%)
  44. Title                                    : Battletruck.1982.1080p.BluRay.x264.DTS-FGT
  45. Language                                 : English
  46. Default                                  : Yes
  47. Forced                                   : No

  48. Menu
  49. 00:00:00.000                             : en:Chapter 01
  50. 00:02:44.164                             : en:Chapter 02
  51. 00:06:42.402                             : en:Chapter 03
  52. 00:15:29.345                             : en:Chapter 04
  53. 00:23:28.323                             : en:Chapter 05
  54. 00:28:26.955                             : en:Chapter 06
  55. 00:38:14.250                             : en:Chapter 07
  56. 00:41:43.334                             : en:Chapter 08
  57. 00:51:15.322                             : en:Chapter 09
  58. 00:56:12.494                             : en:Chapter 10
  59. 01:08:01.744                             : en:Chapter 11
  60. 01:12:56.497                             : en:Chapter 12
  61. 01:19:15.167                             : en:Chapter 13
  62. 01:22:49.631                             : en:Chapter 14
  63. 01:28:05.280                             : en:Chapter 15
复制代码

灵活堡垒 Battletruck.1982.1080p.BluRay.x264.DTS-FGT 7.90GB-2.png 灵活堡垒 Battletruck.1982.1080p.BluRay.x264.DTS-FGT 7.90GB-3.png 灵活堡垒 Battletruck.1982.1080p.BluRay.x264.DTS-FGT 7.90GB-4.png






回复

使用道具 举报

蓝光币
558
发表于 2020-1-25 16:42:35 | 显示全部楼层
楼主发贴辛苦了,谢谢楼主分享!我觉得蓝光电影网是注册对了!
回复 支持 反对

使用道具 举报

懒得打字嘛,点击右侧快捷回复 【右侧内容,后台自定义】
您需要登录后才可以回帖 登录 | 立即加入

本版积分规则

Archiver|小黑屋| 蓝光电影网 |网站地图

Copyright © 2021 Comsenz Inc. Powered by 蓝光电影网

蓝光电影网

本站内容由用户自主分享和转载自互联网,转载目的在于传递更多信息,并不代表本网赞同其观点和对其真实性负责。

如有侵权、违反国家法律政策行为,请联系我们,我们会第一时间及时清除和处理!

举报反馈邮箱:[email protected]

快速回复 返回顶部 返回列表