找回密码

蓝光电影网

查看: 689|回复: 2

[剧情] 交易/拿命交易 Trade.2007.1080p.AMZN.WEBRip.DDP5.1.x264-monkee 11.06GB

[复制链接]
蓝光币
382
发表于 2020-1-23 14:29:57 | 显示全部楼层 |阅读模式
买卖/拿命买卖 Trade.2007.1080p.AMZN.WEBRip.DDP5.1.x264-monkee 11.06GB-1.png

译  名 买卖 / 拿命买卖 / 血腥人犯
片  名 Trade
年  代 2007
产  地 德国 / 美国
类  别 剧情 / 惊悚 / 犯罪
语  言 英语 / 西班牙语 / 俄语 / 波兰语 / 阿拉伯语
上映日期 2007-10-18
IMDb评分  7.4/10 from 16312 users
IMDb链接  https://www.imdb.com/title/tt0399095
豆瓣评分 7.5/10 from 1912 users
豆瓣链接 https://movie.douban.com/subject/1950896/
片  长 120 分钟
导  演 Marco Kreuzpaintner
编  剧 Jose Rivera
主  演 Kevin Kline
       Cesar Ramos
       Alicja Bachleda
       Paulina Gaitan
       琳达·艾蒙 Linda Emond
       扎克·沃德 Zack Ward
       凯特·德尔·卡斯蒂洛 Kate del Castillo
       Tim Reid
       帕沙·D.林奇尼科夫 Pasha D. Lychnikoff
       Guillermo Iván


标  签 犯罪 | 墨西哥 | 美国 | 人性 | 剧情 | 美国电影 | 绑架 | 2007

简  介  

  自从被人贩绑架后,13岁的艾德里安(鲍琳娜·盖坦 Paulina Gaitan 饰)的生活一会儿从天堂跌入了天堂,年轻美丽的她被卷入了一路国际性的“性奴”买卖诡计中。幸亏获得了好友维罗妮卡(艾丽卡·巴赫蕾达-库鲁斯 Alicja Bachleda-Curus 饰)的帮助,艾德里安荣幸的免于了被危险的命运,可她大白好运不会太久长。
  身为艾德里安的哥哥,乔治(Cesar Ramos 饰)为了寻觅妹妹几欲发狂,在警官雷(凯文·克莱恩 Kevin Kline 饰)的帮助下,乔治终究发现了这一犯罪构造的线索,并得知了妹妹的踪影。现在的情况是,乔治必须和时候赛跑,在艾德里安被买家买走之前将她救出,否则他就将永久的落空他挚爱的血亲。
  1. Video
  2. ID                                       : 1
  3. Format                                   : AVC
  4. Format/Info                              : Advanced Video Codec
  5. Format profile                           : [email protected]
  6. Format settings                          : CABAC / 4 Ref Frames
  7. Format settings, CABAC                   : Yes
  8. Format settings, Reference frames        : 4 frames
  9. Codec ID                                 : V_MPEG4/ISO/AVC
  10. Duration                                 : 1 h 59 min
  11. Bit rate mode                            : Variable
  12. Bit rate                                 : 12.6 Mb/s
  13. Maximum bit rate                         : 15.0 Mb/s
  14. Width                                    : 1 920 pixels
  15. Height                                   : 816 pixels
  16. Display aspect ratio                     : 2.35:1
  17. Frame rate mode                          : Constant
  18. Frame rate                               : 23.976 (24000/1001) FPS
  19. Color space                              : YUV
  20. Chroma subsampling                       : 4:2:0
  21. Bit depth                                : 8 bits
  22. Scan type                                : Progressive
  23. Bits/(Pixel*Frame)                       : 0.335
  24. Stream size                              : 10.5 GiB (95%)
  25. Default                                  : Yes
  26. Forced                                   : No
  27. Color range                              : Limited
  28. Color primaries                          : BT.709
  29. Transfer characteristics                 : BT.709
  30. Matrix coefficients                      : BT.709

  31. Audio
  32. ID                                       : 2
  33. Format                                   : E-AC-3
  34. Format/Info                              : Enhanced AC-3
  35. Commercial name                          : Dolby Digital Plus
  36. Codec ID                                 : A_EAC3
  37. Duration                                 : 1 h 59 min
  38. Bit rate mode                            : Constant
  39. Bit rate                                 : 640 kb/s
  40. Channel(s)                               : 6 channels
  41. Channel layout                           : L R C LFE Ls Rs
  42. Sampling rate                            : 48.0 kHz
  43. Frame rate                               : 31.250 FPS (1536 SPF)
  44. Compression mode                         : Lossy
  45. Stream size                              : 548 MiB (5%)
  46. Language                                 : English
  47. Service kind                             : Complete Main
  48. Default                                  : Yes
  49. Forced                                   : No

  50. Text
  51. ID                                       : 3
  52. Format                                   : UTF-8
  53. Codec ID                                 : S_TEXT/UTF8
  54. Codec ID/Info                            : UTF-8 Plain Text
  55. Duration                                 : 1 h 55 min
  56. Bit rate                                 : 28 b/s
  57. Count of elements                        : 1116
  58. Stream size                              : 24.6 KiB (0%)
  59. Language                                 : English
  60. Default                                  : No
  61. Forced                                   : No
复制代码

买卖/拿命买卖 Trade.2007.1080p.AMZN.WEBRip.DDP5.1.x264-monkee 11.06GB-2.png 买卖/拿命买卖 Trade.2007.1080p.AMZN.WEBRip.DDP5.1.x264-monkee 11.06GB-3.png 买卖/拿命买卖 Trade.2007.1080p.AMZN.WEBRip.DDP5.1.x264-monkee 11.06GB-4.png






回复

使用道具 举报

懒得打字嘛,点击右侧快捷回复 【右侧内容,后台自定义】
您需要登录后才可以回帖 登录 | 立即加入

本版积分规则

Archiver|小黑屋| 蓝光电影网 |网站地图

Copyright © 2021 Comsenz Inc. Powered by 蓝光电影网

蓝光电影网

本站内容由用户自主分享和转载自互联网,转载目的在于传递更多信息,并不代表本网赞同其观点和对其真实性负责。

如有侵权、违反国家法律政策行为,请联系我们,我们会第一时间及时清除和处理!

举报反馈邮箱:[email protected]

快速回复 返回顶部 返回列表