找回密码

蓝光电影网

查看: 304|回复: 2

[喜剧] 糊涂活宝贝/糊涂活宝贝 Rock.A.Bye.Baby.1958.1080p.BluRay.x264.DTS-FGT 9.44GB

[复制链接]
蓝光币
382
发表于 2020-1-23 14:45:27 | 显示全部楼层 |阅读模式
糊涂活宝贝/糊涂活宝贝 Rock.A.Bye.Baby.1958.1080p.BluRay.x264.DTS-FGT 9.44GB-1.png

译  名 糊涂活宝贝 / 糊涂活宝贝(港)
片  名 Rock-a-Bye Baby
年  代 1958
产  地 美国
类  别 笑剧
语  言 英语
上映日期 1959-01-15
IMDb评分  6.7/10 from 1637 users
IMDb链接  https://www.imdb.com/title/tt0052141
豆瓣评分 0/10 from 0 users
豆瓣链接 https://movie.douban.com/subject/1763304/
片  长 103 分钟
导  演 弗兰克·塔许林 Frank Tashlin
编  剧 Preston Sturges / Frank Tashlin
主  演 杰瑞·刘易斯 Jerry Lewis
       玛丽莲·麦斯威尔 Marilyn Maxwell
       康妮·史蒂文斯 Connie Stevens
       萨尔瓦托雷·巴卡洛尼 Salvatore Baccaloni
       雷金纳德·加德纳 Reginald Gardiner
       汉斯·康拉德 Hans Conried


标  签 美国 | 笑剧 | 1950s | 弗兰克·塔许林 | JerryLewis | 1958 | 杰瑞·刘易斯 | 北美

简  介  

  About the only thing kept in this film from Preston Sturges origianl story for "The Miracle of Morgan's Creek" is a girl that gets drunk, gets married, gets pregnant and doesn't even remember any of it. A major dirrerence is that "The Miracle of Morgan's Creek" was a classic comedy and "Rock-a-Bye Baby" isn't. This time out, Clayton Poole (Jerry Lewis) is a small town TV repairman who is still in love with his former hometown sweetheart, Carla Naples (Marilyn Maxwell), who is now a famous movie queen. When Carla becomes pregnant due to a hasty marriage in Mexico, which she has forgotten about, the studio tells her a baby will ruin her career so she turns to Clayton, the only person she can trust, and he agrees to care for the baby when it is born. Carla gives birth to triplets and Clayton finds he must get married before he can adopt them. He marries Sandy (Connie Stevens), Carla's younger sister who has always loved him. The press learns about Carla's triplets and she tells reporters she is secretly married to Clayton. Clayton, having rapidly gone from no wife and kids to two wives and three kids, goes into hiding. He returns after several months---nine to be exact for those old biddies who are counting---and learns that Sandy has given birth to quintuplets.
  1. Video
  2. ID                                       : 1
  3. Format                                   : AVC
  4. Format/Info                              : Advanced Video Codec
  5. Format profile                           : [email protected]
  6. Format settings                          : CABAC / 4 Ref Frames
  7. Format settings, CABAC                   : Yes
  8. Format settings, Reference frames        : 4 frames
  9. Codec ID                                 : V_MPEG4/ISO/AVC
  10. Duration                                 : 1 h 43 min
  11. Bit rate                                 : 11.5 Mb/s
  12. Width                                    : 1 920 pixels
  13. Height                                   : 1 080 pixels
  14. Display aspect ratio                     : 16:9
  15. Frame rate mode                          : Constant
  16. Frame rate                               : 23.976 (24000/1001) FPS
  17. Color space                              : YUV
  18. Chroma subsampling                       : 4:2:0
  19. Bit depth                                : 8 bits
  20. Scan type                                : Progressive
  21. Bits/(Pixel*Frame)                       : 0.231
  22. Stream size                              : 8.35 GiB (88%)
  23. Title                                    : Rock.A.Bye.Baby.1958.1080p.BluRay.x264.DTS-FGT
  24. Writing library                          : x264 core 148 r2795M aaa9aa8
  25. Encoding settings                        : cabac=1 / ref=4 / deblock=1:-2:-2 / analyse=0x3:0x113 / me=umh / subme=9 / psy=1 / psy_rd=1.00:0.15 / mixed_ref=1 / me_range=16 / chroma_me=1 / trellis=2 / 8x8dct=1 / cqm=0 / deadzone=21,11 / fast_pskip=1 / chroma_qp_offset=-3 / threads=48 / lookahead_threads=3 / sliced_threads=0 / nr=0 / decimate=1 / interlaced=0 / bluray_compat=0 / constrained_intra=0 / bframes=3 / b_pyramid=2 / b_adapt=1 / b_bias=0 / direct=3 / weightb=1 / open_gop=0 / weightp=2 / keyint=250 / keyint_min=25 / scenecut=40 / intra_refresh=0 / rc_lookahead=50 / rc=2pass / mbtree=1 / bitrate=11500 / ratetol=1.0 / qcomp=0.60 / qpmin=0 / qpmax=69 / qpstep=4 / cplxblur=20.0 / qblur=0.5 / vbv_maxrate=31250 / vbv_bufsize=31250 / nal_hrd=none / filler=0 / ip_ratio=1.40 / aq=1:1.00
  26. Language                                 : English
  27. Default                                  : Yes
  28. Forced                                   : No

  29. Audio
  30. ID                                       : 2
  31. Format                                   : DTS
  32. Format/Info                              : Digital Theater Systems
  33. Codec ID                                 : A_DTS
  34. Duration                                 : 1 h 43 min
  35. Bit rate mode                            : Constant
  36. Bit rate                                 : 1 509 kb/s
  37. Channel(s)                               : 1 channel
  38. Channel layout                           : C
  39. Sampling rate                            : 48.0 kHz
  40. Frame rate                               : 93.750 FPS (512 SPF)
  41. Bit depth                                : 16 bits
  42. Compression mode                         : Lossy
  43. Stream size                              : 1.10 GiB (12%)
  44. Title                                    : Rock.A.Bye.Baby.1958.1080p.BluRay.x264.DTS-FGT
  45. Language                                 : English
  46. Default                                  : Yes
  47. Forced                                   : No

  48. Text
  49. ID                                       : 3
  50. Format                                   : UTF-8
  51. Codec ID                                 : S_TEXT/UTF8
  52. Codec ID/Info                            : UTF-8 Plain Text
  53. Duration                                 : 1 h 42 min
  54. Bit rate                                 : 68 b/s
  55. Count of elements                        : 1232
  56. Stream size                              : 51.6 KiB (0%)
  57. Language                                 : English
  58. Default                                  : Yes
  59. Forced                                   : No
复制代码

糊涂活宝贝/糊涂活宝贝 Rock.A.Bye.Baby.1958.1080p.BluRay.x264.DTS-FGT 9.44GB-2.png 糊涂活宝贝/糊涂活宝贝 Rock.A.Bye.Baby.1958.1080p.BluRay.x264.DTS-FGT 9.44GB-2.png 糊涂活宝贝/糊涂活宝贝 Rock.A.Bye.Baby.1958.1080p.BluRay.x264.DTS-FGT 9.44GB-4.png






回复

使用道具 举报

懒得打字嘛,点击右侧快捷回复 【右侧内容,后台自定义】
您需要登录后才可以回帖 登录 | 立即加入

本版积分规则

Archiver|小黑屋| 蓝光电影网 |网站地图

Copyright © 2021 Comsenz Inc. Powered by 蓝光电影网

蓝光电影网

本站内容由用户自主分享和转载自互联网,转载目的在于传递更多信息,并不代表本网赞同其观点和对其真实性负责。

如有侵权、违反国家法律政策行为,请联系我们,我们会第一时间及时清除和处理!

举报反馈邮箱:[email protected]

快速回复 返回顶部 返回列表