找回密码

蓝光电影网

查看: 633|回复: 2

[剧情] 天堂/天堂镇的夏天 Paradise.1991.1080p.BluRay.x264.DTS-FGT 10.12GB

[复制链接]
蓝光币
382
发表于 2020-1-23 14:46:43 | 显示全部楼层 |阅读模式
天堂/天堂镇的炎天 Paradise.1991.1080p.BluRay.x264.DTS-FGT 10.12GB-1.png

译  名 天堂 / 天堂镇的炎天
片  名 Paradise
年  代 1991
产  地 美国
类  别 剧情
语  言 英语
上映日期 1991-09-12
IMDb评分  6.7/10 from 2586 users
IMDb链接  https://www.imdb.com/title/tt0102631
豆瓣评分 0/10 from 0 users
豆瓣链接 https://movie.douban.com/subject/2138899/
片  长 111 分钟
导  演 Mary Agnes Donoghue
编  剧 Mary Agnes Donoghue
主  演 Melanie Griffith
       Don Johnson
       Elijah Wood
       Thora Birch
       Eve Gordon
       Greg Travis


标  签 儿童 | 美国 | 美国电影 | 剧情 | 90s | 1991 | 家庭

简  介  

  暑假到了,10岁的威拉德·扬(伊利亚·伍德饰)被妈妈送到一个叫天堂的沿海小镇。他将在他母亲最好的朋友莉莉·里德家里度过暑假。到来的第一天,威拉德碰到了里德邻人家9岁的小女孩比莉·派克(索拉·波奇饰)。虽然比莉是个喜好惹是生非的假小子,与威拉德灵巧听话的性情截然不同,可是他们还是成为了好朋友。他们一路划船、泅水、观察小动物,还溜进仓房窃看比莉的姐姐和她男朋友亲热。在里德家,威拉德很快发现,莉莉与她丈夫本·里德的关系似乎有很大题目——两人几近没有什么相同,也难见笑容。一个偶然的机遇,威拉德晓得了两人关系出现题目标缘由,因而尽力帮助两人从悲剧中走出来。威拉德是一个聪明、讨人喜好的孩子,很快便别离赢得了莉莉和本的爱好。接下来他会在适当的机会,勾起二人对往昔美好日子的回忆。但是,威拉德也有着自己解不开的心结——他的爸爸已经很久没有回家了。他妈妈告诉他说,爸爸一向在履行海上使命所以不能回家,但威拉德听到谎言说他爸爸扔下他和妈妈与此外女人跑了。威拉德不愿意相信这是真的,也不敢去面临这样的究竟......在这个静谧小镇的炎天,威拉德能否帮助里德佳耦走出阴霾,又能否解开自己的心结呢?
  1. Video
  2. ID                                       : 1
  3. Format                                   : AVC
  4. Format/Info                              : Advanced Video Codec
  5. Format profile                           : [email protected]
  6. Format settings                          : CABAC / 4 Ref Frames
  7. Format settings, CABAC                   : Yes
  8. Format settings, Reference frames        : 4 frames
  9. Codec ID                                 : V_MPEG4/ISO/AVC
  10. Duration                                 : 1 h 51 min
  11. Bit rate                                 : 11.5 Mb/s
  12. Width                                    : 1 920 pixels
  13. Height                                   : 1 036 pixels
  14. Display aspect ratio                     : 1.85:1
  15. Frame rate mode                          : Constant
  16. Frame rate                               : 23.976 (24000/1001) FPS
  17. Color space                              : YUV
  18. Chroma subsampling                       : 4:2:0
  19. Bit depth                                : 8 bits
  20. Scan type                                : Progressive
  21. Bits/(Pixel*Frame)                       : 0.241
  22. Stream size                              : 8.94 GiB (88%)
  23. Title                                    : Paradise.1991.1080p.BluRay.x264.DTS-FGT
  24. Writing library                          : x264 core 148 r2748 97eaef2
  25. Encoding settings                        : cabac=1 / ref=4 / deblock=1:-2:-2 / analyse=0x3:0x113 / me=umh / subme=9 / psy=1 / psy_rd=1.00:0.15 / mixed_ref=1 / me_range=16 / chroma_me=1 / trellis=2 / 8x8dct=1 / cqm=0 / deadzone=21,11 / fast_pskip=1 / chroma_qp_offset=-3 / threads=72 / lookahead_threads=3 / sliced_threads=0 / nr=0 / decimate=1 / interlaced=0 / bluray_compat=0 / constrained_intra=0 / bframes=3 / b_pyramid=2 / b_adapt=1 / b_bias=0 / direct=3 / weightb=1 / open_gop=0 / weightp=2 / keyint=250 / keyint_min=25 / scenecut=40 / intra_refresh=0 / rc_lookahead=50 / rc=2pass / mbtree=1 / bitrate=11500 / ratetol=1.0 / qcomp=0.60 / qpmin=0 / qpmax=69 / qpstep=4 / cplxblur=20.0 / qblur=0.5 / vbv_maxrate=31250 / vbv_bufsize=31250 / nal_hrd=none / filler=0 / ip_ratio=1.40 / aq=1:1.00
  26. Language                                 : English
  27. Default                                  : Yes
  28. Forced                                   : No

  29. Audio
  30. ID                                       : 2
  31. Format                                   : DTS
  32. Format/Info                              : Digital Theater Systems
  33. Codec ID                                 : A_DTS
  34. Duration                                 : 1 h 51 min
  35. Bit rate mode                            : Constant
  36. Bit rate                                 : 1 509 kb/s
  37. Channel(s)                               : 2 channels
  38. Channel layout                           : L R
  39. Sampling rate                            : 48.0 kHz
  40. Frame rate                               : 93.750 FPS (512 SPF)
  41. Bit depth                                : 16 bits
  42. Compression mode                         : Lossy
  43. Stream size                              : 1.17 GiB (12%)
  44. Title                                    : Paradise.1991.1080p.BluRay.x264.DTS-FGT
  45. Language                                 : English
  46. Default                                  : Yes
  47. Forced                                   : No

  48. Text
  49. ID                                       : 3
  50. Format                                   : UTF-8
  51. Codec ID                                 : S_TEXT/UTF8
  52. Codec ID/Info                            : UTF-8 Plain Text
  53. Duration                                 : 1 h 46 min
  54. Bit rate                                 : 40 b/s
  55. Count of elements                        : 902
  56. Stream size                              : 31.8 KiB (0%)
  57. Language                                 : English
  58. Default                                  : Yes
  59. Forced                                   : No

  60. Menu
  61. 00:00:00.000                             : en:Chapter 01
  62. 00:09:22.395                             : en:Chapter 02
  63. 00:23:36.332                             : en:Chapter 03
  64. 00:38:44.072                             : en:Chapter 04
  65. 00:57:06.298                             : en:Chapter 05
  66. 01:12:33.266                             : en:Chapter 06
  67. 01:29:34.786                             : en:Chapter 07
  68. 01:42:03.826                             : en:Chapter 08
复制代码

天堂/天堂镇的炎天 Paradise.1991.1080p.BluRay.x264.DTS-FGT 10.12GB-2.png 天堂/天堂镇的炎天 Paradise.1991.1080p.BluRay.x264.DTS-FGT 10.12GB-3.png 天堂/天堂镇的炎天 Paradise.1991.1080p.BluRay.x264.DTS-FGT 10.12GB-1.png






回复

使用道具 举报

懒得打字嘛,点击右侧快捷回复 【右侧内容,后台自定义】
您需要登录后才可以回帖 登录 | 立即加入

本版积分规则

Archiver|小黑屋| 蓝光电影网 |网站地图

Copyright © 2021 Comsenz Inc. Powered by 蓝光电影网

蓝光电影网

本站内容由用户自主分享和转载自互联网,转载目的在于传递更多信息,并不代表本网赞同其观点和对其真实性负责。

如有侵权、违反国家法律政策行为,请联系我们,我们会第一时间及时清除和处理!

举报反馈邮箱:[email protected]

快速回复 返回顶部 返回列表