找回密码

蓝光电影网

查看: 1562|回复: 5

[喜剧] 神探蒲松龄 The.Knight.of.Shadows.Between.Yin.and.Yang.2019.CHINESE.1080p.BluRay.x264.DTS-HD.MA.5.1-PbK 11.64GB

[复制链接]
蓝光币
382
发表于 2020-1-23 21:10:06 | 显示全部楼层 |阅读模式
神探蒲松龄 The.Knight.of.Shadows.Between.Yin.and.Yang.2019.CHINESE.1080p.BluRay.x264.DTS-HD.MA.5.1-PbK 11.64GB-1.png

译  名 Knight of Shadows: Walker Between Halfworlds / The Knight of Shadows: Between Yin and Yang / 神探蒲松龄之兰若仙踪
片  名 神探蒲松龄
年  代 2019
产  地 中国大陆
类  别 笑剧 / 行动 / 奇异 / 古装
语  言 汉语普通话
上映日期 2019-02-05(中国大陆)
IMDb评分  4.9/10 from 760 users
IMDb链接  https://www.imdb.com/title/tt7587984
豆瓣评分 3.8/10 from 57190 users
豆瓣链接 https://movie.douban.com/subject/27065898/
片  长 108分钟
导  演 严嘉 Jia Yan
编  剧 刘伯翰 Bohan Liu / 简文
主  演 成龙 Jackie Chan
       阮经天 Ethan Juan
       钟楚曦 Elane Zhong
       林柏宏 Po-Hung Lin
       林鹏 Peng Lin
       乔杉 Shan Qiao
       潘长江 Changjiang Pan
       苑琼丹 King-Tan Yuen
       刘智福 Lance Luu
       刘智满 Mark Luu
       刘智堂 Charles Luu
       姜嫄 Yuan Jiang


标  签 奇异 | 烂片 | 笑剧 | 古装 | 2019 | 烂片当中的烂片啊~ | 国产 | 神话

简  介  

  隐居深山老林的蒲松龄(成龙 饰)不可是一位文彩飞扬的文学家,更是一个身怀特技的捉妖高手。在某次珠宝偷盗案中,蒲松龄和金华县菜鸟捕快严飞(林柏宏 饰)结识。在此以后,被衙门提出来的严飞找上山来,暮气白赖要拜蒲松龄为师。适值此时,金华县初县令(潘长江 饰)的独女被女妖聂小倩(钟楚曦 饰)摄走,中途虽有法师宁采臣(阮经天 饰)阻止,可是蜜斯却着落不明。得知此讯,蒲松龄带着严飞和一众早已收服的小妖下山捉妖,成果遭受小倩的姐姐镜妖(林鹏 饰)阻止。
  一番混战事后,虽然镜妖被除,可是宁采臣和聂小倩之间仍有一段宿缘未了……
  1. Video
  2. ID                                       : 1
  3. Format                                   : AVC
  4. Format/Info                              : Advanced Video Codec
  5. Format profile                           : [email protected]
  6. Format settings                          : CABAC / 5 Ref Frames
  7. Format settings, CABAC                   : Yes
  8. Format settings, Reference frames        : 5 frames
  9. Codec ID                                 : V_MPEG4/ISO/AVC
  10. Duration                                 : 1 h 48 min
  11. Bit rate                                 : 10.7 Mb/s
  12. Width                                    : 1 920 pixels
  13. Height                                   : 816 pixels
  14. Display aspect ratio                     : 2.35:1
  15. Frame rate mode                          : Constant
  16. Frame rate                               : 24.000 FPS
  17. Color space                              : YUV
  18. Chroma subsampling                       : 4:2:0
  19. Bit depth                                : 8 bits
  20. Scan type                                : Progressive
  21. Bits/(Pixel*Frame)                       : 0.284
  22. Stream size                              : 8.13 GiB (70%)
  23. Title                                    : The.Knight.of.Shadows.Between.Yin.and.Yang.2019.CHINESE.1080p.BluRay.x264.DTS-HD.MA.5.1-PbK
  24. Writing library                          : x264 core 158 r2984+49 6932f4a t_mod_New [[email protected] X86_64]
  25. Encoding settings                        : cabac=1 / ref=5 / deblock=1:-3:-3 / analyse=0x3:0x133 / me=umh / subme=10 / psy=1 / fade_compensate=0.00 / psy_rd=1.00:0.00 / mixed_ref=1 / me_range=32 / chroma_me=1 / trellis=2 / 8x8dct=1 / cqm=0 / deadzone=21,11 / fast_pskip=0 / chroma_qp_offset=-2 / threads=16 / lookahead_threads=4 / sliced_threads=0 / nr=0 / decimate=0 / interlaced=0 / bluray_compat=0 / constrained_intra=0 / fgo=0 / bframes=12 / b_pyramid=2 / b_adapt=2 / b_bias=0 / direct=3 / weightb=1 / open_gop=0 / weightp=2 / keyint=480 / keyint_min=24 / scenecut=40 / intra_refresh=0 / rc_lookahead=80 / rc=crf / mbtree=0 / crf=19.0000 / qcomp=0.60 / qpmin=0:0:0 / qpmax=69:69:69 / qpstep=4 / vbv_maxrate=62500 / vbv_bufsize=78125 / crf_max=0.0 / nal_hrd=none / filler=0 / ip_ratio=1.30 / pb_ratio=1.20 / aq=3:0.80 / aq-sensitivity=10.00 / aq-factor=1.00:1.00:1.00 / aq2=0 / aq3=0
  26. Language                                 : English
  27. Default                                  : Yes
  28. Forced                                   : No
  29. Color range                              : Limited
  30. Color primaries                          : BT.709
  31. Transfer characteristics                 : BT.709
  32. Matrix coefficients                      : BT.709

  33. Audio #1
  34. ID                                       : 2
  35. Format                                   : DTS XLL
  36. Format/Info                              : Digital Theater Systems
  37. Commercial name                          : DTS-HD Master Audio
  38. Codec ID                                 : A_DTS
  39. Duration                                 : 1 h 48 min
  40. Bit rate mode                            : Variable
  41. Bit rate                                 : 2 307 kb/s
  42. Channel(s)                               : 6 channels
  43. Channel layout                           : C L R Ls Rs LFE
  44. Sampling rate                            : 48.0 kHz
  45. Frame rate                               : 93.750 FPS (512 SPF)
  46. Bit depth                                : 16 bits
  47. Compression mode                         : Lossless
  48. Stream size                              : 1.75 GiB (15%)
  49. Title                                    : The.Knight.of.Shadows.Between.Yin.and.Yang.2019.CHINESE.1080p.BluRay.x264.DTS-HD.MA.5.1-PbK
  50. Language                                 : Chinese
  51. Default                                  : Yes
  52. Forced                                   : No

  53. Audio #2
  54. ID                                       : 3
  55. Format                                   : DTS XLL
  56. Format/Info                              : Digital Theater Systems
  57. Commercial name                          : DTS-HD Master Audio
  58. Codec ID                                 : A_DTS
  59. Duration                                 : 1 h 48 min
  60. Bit rate mode                            : Variable
  61. Bit rate                                 : 2 287 kb/s
  62. Channel(s)                               : 6 channels
  63. Channel layout                           : C L R Ls Rs LFE
  64. Sampling rate                            : 48.0 kHz
  65. Frame rate                               : 93.750 FPS (512 SPF)
  66. Bit depth                                : 16 bits
  67. Compression mode                         : Lossless
  68. Stream size                              : 1.74 GiB (15%)
  69. Title                                    : The.Knight.of.Shadows.Between.Yin.and.Yang.2019.CHINESE.1080p.BluRay.x264.DTS-HD.MA.5.1-PbK
  70. Language                                 : English
  71. Default                                  : No
  72. Forced                                   : No

  73. Text #1
  74. ID                                       : 4
  75. Format                                   : UTF-8
  76. Codec ID                                 : S_TEXT/UTF8
  77. Codec ID/Info                            : UTF-8 Plain Text
  78. Duration                                 : 1 h 40 min
  79. Bit rate                                 : 41 b/s
  80. Count of elements                        : 1214
  81. Stream size                              : 30.5 KiB (0%)
  82. Title                                    : English-SRT
  83. Language                                 : English
  84. Default                                  : Yes
  85. Forced                                   : No

  86. Text #2
  87. ID                                       : 5
  88. Format                                   : PGS
  89. Muxing mode                              : zlib
  90. Codec ID                                 : S_HDMV/PGS
  91. Codec ID/Info                            : Picture based subtitle format used on BDs/HD-DVDs
  92. Duration                                 : 1 h 40 min
  93. Bit rate                                 : 27.1 kb/s
  94. Count of elements                        : 2332
  95. Stream size                              : 19.5 MiB (0%)
  96. Title                                    : English-PGS
  97. Language                                 : English
  98. Default                                  : No
  99. Forced                                   : No

  100. Menu
  101. 00:00:00.000                             : en:Chapter 01
  102. 00:06:31.958                             : en:Chapter 02
  103. 00:14:13.958                             : en:Chapter 03
  104. 00:20:45.666                             : en:Chapter 04
  105. 00:27:08.083                             : en:Chapter 05
  106. 00:36:41.416                             : en:Chapter 06
  107. 00:48:54.916                             : en:Chapter 07
  108. 00:57:53.791                             : en:Chapter 08
  109. 01:07:51.625                             : en:Chapter 09
  110. 01:18:34.541                             : en:Chapter 10
  111. 01:24:51.458                             : en:Chapter 11
  112. 01:31:20.791                             : en:Chapter 12
  113. 01:42:38.375                             : en:Chapter 13
复制代码

神探蒲松龄 The.Knight.of.Shadows.Between.Yin.and.Yang.2019.CHINESE.1080p.BluRay.x264.DTS-HD.MA.5.1-PbK 11.64GB-1.png 神探蒲松龄 The.Knight.of.Shadows.Between.Yin.and.Yang.2019.CHINESE.1080p.BluRay.x264.DTS-HD.MA.5.1-PbK 11.64GB-3.png 神探蒲松龄 The.Knight.of.Shadows.Between.Yin.and.Yang.2019.CHINESE.1080p.BluRay.x264.DTS-HD.MA.5.1-PbK 11.64GB-4.png






回复

使用道具 举报

蓝光币
1
发表于 2020-1-24 10:21:08 | 显示全部楼层

我看不错噢 谢谢楼主!蓝光电影网越来越好!
回复 支持 反对

使用道具 举报

蓝光币
1
发表于 2020-1-24 10:22:38 | 显示全部楼层

楼主,我太崇拜你了!我想我是一天也不能离开蓝光电影网
回复 支持 反对

使用道具 举报

蓝光币
356
发表于 2020-1-24 13:29:17 | 显示全部楼层

楼主,大恩不言谢了!蓝光电影网是最棒的!
回复 支持 反对

使用道具 举报

蓝光币
643
发表于 2020-1-25 17:35:01 | 显示全部楼层
谢谢楼主无私分享。
回复 支持 反对

使用道具 举报

蓝光币
7
发表于 2020-1-28 22:26:48 | 显示全部楼层
感谢楼主分享!
回复 支持 反对

使用道具 举报

懒得打字嘛,点击右侧快捷回复 【右侧内容,后台自定义】
您需要登录后才可以回帖 登录 | 立即加入

本版积分规则

Archiver|小黑屋| 蓝光电影网 |网站地图

Copyright © 2021 Comsenz Inc. Powered by 蓝光电影网

蓝光电影网

本站内容由用户自主分享和转载自互联网,转载目的在于传递更多信息,并不代表本网赞同其观点和对其真实性负责。

如有侵权、违反国家法律政策行为,请联系我们,我们会第一时间及时清除和处理!

举报反馈邮箱:[email protected]

快速回复 返回顶部 返回列表