找回密码

蓝光电影网

查看: 399|回复: 2

[剧情] 铁鹰战士3死亡陷阱/铁鹰战士III死亡陷井 Aces.Iron.Eagle.III.1992.1080p.BluRay.REMUX.AVC.DTS-HD.MA.2.0-FGT 17.89GB

[复制链接]
蓝光币
382
发表于 2020-1-23 22:35:54 | 显示全部楼层 |阅读模式
铁鹰战士3灭亡圈套/铁鹰战士III灭亡陷井 Aces.Iron.Eagle.III.1992.1080p.BluRay.REMUX.AVC.DTS-HD.MA.2.0-FGT 17.89GB-1.png

译  名 铁鹰战士3灭亡圈套 / 铁鹰战士III灭亡陷井
片  名 Aces: Iron Eagle III
年  代 1992
产  地 英国 / 美国
类  别 剧情 / 行动
语  言 英语
上映日期 1992-01-09
IMDb评分  3.7/10 from 2591 users
IMDb链接  https://www.imdb.com/title/tt0103617
豆瓣评分 0/10 from 0 users
豆瓣链接 https://movie.douban.com/subject/1294622/
片  长 98 分钟
导  演 约翰·格兰 John Glen
编  剧 Kevin Elders / 西德尼·J·弗里尔 Sidney J. Furie
主  演 小路易斯·格赛特 Louis Gossett Jr.
       Rachel McLish
       豪斯特·巴奇霍兹 Horst Buchholz
       克里斯托弗·卡赞诺夫 Christopher Cazenove
       千叶真一 Sonny Chiba
       米奇·瑞恩 Mitch Ryan


标  签 战争 | 我想看这部电影 | 行动 | P-38 | 特务 | 英国 | 美国电影 | 美国

简  介  

  暂无相关剧情先容
  1. Video
  2. ID                                       : 1
  3. Format                                   : AVC
  4. Format/Info                              : Advanced Video Codec
  5. Format profile                           : [email protected]
  6. Format settings                          : CABAC / 4 Ref Frames
  7. Format settings, CABAC                   : Yes
  8. Format settings, Reference frames        : 4 frames
  9. Codec ID                                 : V_MPEG4/ISO/AVC
  10. Duration                                 : 1 h 38 min
  11. Bit rate mode                            : Variable
  12. Bit rate                                 : 24.3 Mb/s
  13. Maximum bit rate                         : 37.5 Mb/s
  14. Width                                    : 1 920 pixels
  15. Height                                   : 1 080 pixels
  16. Display aspect ratio                     : 16:9
  17. Frame rate mode                          : Constant
  18. Frame rate                               : 23.976 (24000/1001) FPS
  19. Color space                              : YUV
  20. Chroma subsampling                       : 4:2:0
  21. Bit depth                                : 8 bits
  22. Scan type                                : Progressive
  23. Bits/(Pixel*Frame)                       : 0.489
  24. Stream size                              : 16.8 GiB (94%)
  25. Title                                    : Aces.Iron.Eagle.III.1992.1080p.BluRay.REMUX.AVC.DTS-HD.MA.2.0-FGT
  26. Language                                 : English
  27. Default                                  : No
  28. Forced                                   : No

  29. Audio
  30. ID                                       : 2
  31. Format                                   : DTS XLL
  32. Format/Info                              : Digital Theater Systems
  33. Commercial name                          : DTS-HD Master Audio
  34. Codec ID                                 : A_DTS
  35. Duration                                 : 1 h 38 min
  36. Bit rate mode                            : Variable
  37. Bit rate                                 : 1 557 kb/s
  38. Channel(s)                               : 2 channels
  39. Channel layout                           : L R
  40. Sampling rate                            : 48.0 kHz
  41. Frame rate                               : 93.750 FPS (512 SPF)
  42. Bit depth                                : 16 bits
  43. Compression mode                         : Lossless
  44. Stream size                              : 1.08 GiB (6%)
  45. Title                                    : Aces.Iron.Eagle.III.1992.1080p.BluRay.REMUX.AVC.DTS-HD.MA.2.0-FGT
  46. Language                                 : English
  47. Default                                  : Yes
  48. Forced                                   : No

  49. Text
  50. ID                                       : 3
  51. Format                                   : PGS
  52. Muxing mode                              : zlib
  53. Codec ID                                 : S_HDMV/PGS
  54. Codec ID/Info                            : Picture based subtitle format used on BDs/HD-DVDs
  55. Duration                                 : 1 h 32 min
  56. Bit rate                                 : 25.5 kb/s
  57. Count of elements                        : 1375
  58. Stream size                              : 16.9 MiB (0%)
  59. Title                                    : English-PGS
  60. Language                                 : English
  61. Default                                  : Yes
  62. Forced                                   : No

  63. Menu
  64. 00:00:00.000                             : en:Chapter 00
  65. 00:11:17.843                             : en:Chapter 01
  66. 00:23:33.328                             : en:Chapter 02
  67. 00:33:36.431                             : en:Chapter 03
  68. 00:48:39.625                             : en:Chapter 04
  69. 01:02:44.343                             : en:Chapter 05
  70. 01:15:38.242                             : en:Chapter 06
  71. 01:30:58.828                             : en:Chapter 07
复制代码

铁鹰战士3灭亡圈套/铁鹰战士III灭亡陷井 Aces.Iron.Eagle.III.1992.1080p.BluRay.REMUX.AVC.DTS-HD.MA.2.0-FGT 17.89GB-2.png 铁鹰战士3灭亡圈套/铁鹰战士III灭亡陷井 Aces.Iron.Eagle.III.1992.1080p.BluRay.REMUX.AVC.DTS-HD.MA.2.0-FGT 17.89GB-3.png 铁鹰战士3灭亡圈套/铁鹰战士III灭亡陷井 Aces.Iron.Eagle.III.1992.1080p.BluRay.REMUX.AVC.DTS-HD.MA.2.0-FGT 17.89GB-4.png






回复

使用道具 举报

懒得打字嘛,点击右侧快捷回复 【右侧内容,后台自定义】
您需要登录后才可以回帖 登录 | 立即加入

本版积分规则

Archiver|小黑屋| 蓝光电影网 |网站地图

Copyright © 2021 Comsenz Inc. Powered by 蓝光电影网

蓝光电影网

本站内容由用户自主分享和转载自互联网,转载目的在于传递更多信息,并不代表本网赞同其观点和对其真实性负责。

如有侵权、违反国家法律政策行为,请联系我们,我们会第一时间及时清除和处理!

举报反馈邮箱:[email protected]

快速回复 返回顶部 返回列表