找回密码

蓝光电影网

查看: 494|回复: 3

[剧情] 洞/凶洞 The.Hole.2001.1080p.BluRay.REMUX.AVC.DTS-HD.MA.5.1-FGT 19.63GB

[复制链接]
蓝光币
382
发表于 2020-1-24 11:22:17 | 显示全部楼层 |阅读模式
洞/凶洞 The.Hole.2001.1080p.BluRay.REMUX.AVC.DTS-HD.MA.5.1-FGT 19.63GB-1.png

译  名 洞 / 凶洞 / 可骇洞 / 鬼地方
片  名 The Hole
年  代 2001
产  地 英国
类  别 剧情 / 悬疑 / 惊悚 / 可骇
语  言 英语
上映日期 2001-12-13
IMDb评分  6.2/10 from 42865 users
IMDb链接  https://www.imdb.com/title/tt0242527
豆瓣评分 6.6/10 from 1867 users
豆瓣链接 https://movie.douban.com/subject/1306528/
片  长 102 分钟
导  演 Nick Hamm
编  剧 Ben Court / Caroline Ip / Guy Burt
主  演 Thora Birch
       凯拉·奈特莉 Keira Knightley
       Embeth Davidtz
       Desmond Harrington
       Daniel Brocklebank
       劳伦斯·福克斯 Laurence Fox


标  签 悬疑 | 惊悚 | 英国 | 人性 | 可骇 | 青春 | KeiraKnightley | 英国电影

简  介  

  一个名叫莉兹(索拉·伯奇 Thora Birch 饰)的女孩刚刚履历了人生中最可怕的一段时光,在心理学家菲丽帕(艾伯丝·戴维兹 Embeth Davidtz 饰)的循循善诱下,她终究决议将她的履历公诸于众。在莉兹、麦克(戴斯蒙德·哈灵顿 Desmond Harrington 饰)和马丁(Daniel Brocklebank 饰)这一女两男之间,存在着一段复杂的三角关系,莉兹迷恋麦克,马丁则对莉兹穷追不舍。在一个偶然发现的地下堡垒中,麦克和朋友们决议开一个为期三天的奥秘派对,莉兹也加入到了其中。
  就在年轻人们纵情狂欢以后,他们震动的发现,地堡的唯一出口被封死了。莉兹以为这是马丁出于妒忌所为,在履历了一番挫折以后,莉兹和麦克终究逃诞生天。可是,按照警方的观察,麦克早已经死在了地堡当中,而当警方找到马丁之时,从马丁口入耳到的,居然是一个与莉兹所述截然分歧的故事。究竟是谁在撒谎?真相又究竟是怎样的呢?
  1. Video
  2. ID                                       : 1
  3. Format                                   : AVC
  4. Format/Info                              : Advanced Video Codec
  5. Format profile                           : [email protected]
  6. Format settings                          : CABAC / 3 Ref Frames
  7. Format settings, CABAC                   : Yes
  8. Format settings, Reference frames        : 3 frames
  9. Codec ID                                 : V_MPEG4/ISO/AVC
  10. Duration                                 : 1 h 42 min
  11. Bit rate mode                            : Variable
  12. Bit rate                                 : 25.0 Mb/s
  13. Maximum bit rate                         : 35.0 Mb/s
  14. Width                                    : 1 920 pixels
  15. Height                                   : 1 080 pixels
  16. Display aspect ratio                     : 16:9
  17. Frame rate mode                          : Constant
  18. Frame rate                               : 24.000 FPS
  19. Color space                              : YUV
  20. Chroma subsampling                       : 4:2:0
  21. Bit depth                                : 8 bits
  22. Scan type                                : Progressive
  23. Bits/(Pixel*Frame)                       : 0.502
  24. Stream size                              : 17.8 GiB (91%)
  25. Title                                    : The.Hole.2001.1080p.BluRay.REMUX.AVC.DTS-HD.MA.5.1-FGT
  26. Writing library                          : x264 core 155 r2901 7d0ff22
  27. Encoding settings                        : cabac=1 / ref=3 / deblock=1:-1:-1 / analyse=0x3:0x133 / me=umh / subme=10 / psy=1 / psy_rd=1.00:0.15 / mixed_ref=1 / me_range=24 / chroma_me=1 / trellis=2 / 8x8dct=1 / cqm=0 / deadzone=21,11 / fast_pskip=1 / chroma_qp_offset=-3 / threads=34 / lookahead_threads=2 / sliced_threads=0 / slices=4 / nr=0 / decimate=1 / interlaced=0 / bluray_compat=1 / constrained_intra=0 / bframes=3 / b_pyramid=0 / b_adapt=2 / b_bias=0 / direct=3 / weightb=1 / open_gop=1 / weightp=1 / keyint=24 / keyint_min=1 / scenecut=40 / intra_refresh=0 / rc_lookahead=24 / rc=2pass / mbtree=1 / bitrate=25000 / ratetol=1.0 / qcomp=0.60 / qpmin=0 / qpmax=69 / qpstep=4 / cplxblur=20.0 / qblur=0.5 / vbv_maxrate=35000 / vbv_bufsize=30000 / nal_hrd=vbr / filler=0 / ip_ratio=1.40 / aq=1:1.00
  28. Language                                 : English
  29. Default                                  : No
  30. Forced                                   : No
  31. Color range                              : Limited
  32. Color primaries                          : BT.709
  33. Transfer characteristics                 : BT.709
  34. Matrix coefficients                      : BT.709

  35. Audio #1
  36. ID                                       : 2
  37. Format                                   : DTS XLL
  38. Format/Info                              : Digital Theater Systems
  39. Commercial name                          : DTS-HD Master Audio
  40. Codec ID                                 : A_DTS
  41. Duration                                 : 1 h 42 min
  42. Bit rate mode                            : Variable
  43. Bit rate                                 : 2 070 kb/s
  44. Channel(s)                               : 6 channels
  45. Channel layout                           : C L R Ls Rs LFE
  46. Sampling rate                            : 48.0 kHz
  47. Frame rate                               : 93.750 FPS (512 SPF)
  48. Bit depth                                : 16 bits
  49. Compression mode                         : Lossless
  50. Stream size                              : 1.48 GiB (8%)
  51. Title                                    : The.Hole.2001.1080p.BluRay.REMUX.AVC.DTS-HD.MA.5.1-FGT
  52. Language                                 : English
  53. Default                                  : Yes
  54. Forced                                   : No

  55. Audio #2
  56. ID                                       : 3
  57. Format                                   : AC-3
  58. Format/Info                              : Audio Coding 3
  59. Commercial name                          : Dolby Digital
  60. Codec ID                                 : A_AC3
  61. Duration                                 : 1 h 42 min
  62. Bit rate mode                            : Constant
  63. Bit rate                                 : 448 kb/s
  64. Channel(s)                               : 6 channels
  65. Channel layout                           : L R C LFE Ls Rs
  66. Sampling rate                            : 48.0 kHz
  67. Frame rate                               : 31.250 FPS (1536 SPF)
  68. Bit depth                                : 16 bits
  69. Compression mode                         : Lossy
  70. Stream size                              : 327 MiB (2%)
  71. Title                                    : The.Hole.2001.1080p.BluRay.REMUX.AVC.DTS-HD.MA.5.1-FGT
  72. Language                                 : English
  73. Service kind                             : Complete Main
  74. Default                                  : No
  75. Forced                                   : No

  76. Text
  77. ID                                       : 4
  78. Format                                   : UTF-8
  79. Codec ID                                 : S_TEXT/UTF8
  80. Codec ID/Info                            : UTF-8 Plain Text
  81. Duration                                 : 1 h 33 min
  82. Bit rate                                 : 56 b/s
  83. Count of elements                        : 1367
  84. Stream size                              : 38.4 KiB (0%)
  85. Title                                    : English-SRT
  86. Language                                 : English
  87. Default                                  : Yes
  88. Forced                                   : No

  89. Menu
  90. 00:00:00.000                             : en:Chapter 01
  91. 00:07:36.708                             : en:Chapter 02
  92. 00:14:29.000                             : en:Chapter 03
  93. 00:21:26.583                             : en:Chapter 04
  94. 00:29:30.958                             : en:Chapter 05
  95. 00:40:59.291                             : en:Chapter 06
  96. 00:48:58.708                             : en:Chapter 07
  97. 00:57:25.458                             : en:Chapter 08
  98. 01:07:15.583                             : en:Chapter 09
  99. 01:18:33.958                             : en:Chapter 10
  100. 01:25:37.500                             : en:Chapter 11
  101. 01:33:49.250                             : en:Chapter 12
复制代码

洞/凶洞 The.Hole.2001.1080p.BluRay.REMUX.AVC.DTS-HD.MA.5.1-FGT 19.63GB-2.png 洞/凶洞 The.Hole.2001.1080p.BluRay.REMUX.AVC.DTS-HD.MA.5.1-FGT 19.63GB-3.png 洞/凶洞 The.Hole.2001.1080p.BluRay.REMUX.AVC.DTS-HD.MA.5.1-FGT 19.63GB-4.png






回复

使用道具 举报

蓝光币
1
发表于 2020-5-17 20:30:02 | 显示全部楼层

既然你诚信诚意的推荐了,那我就勉为其难的看看吧!蓝光电影网不走平凡路。
回复 支持 反对

使用道具 举报

蓝光币
1
发表于 2020-5-25 23:16:51 | 显示全部楼层

我看不错噢 谢谢楼主!蓝光电影网越来越好!
回复 支持 反对

使用道具 举报

懒得打字嘛,点击右侧快捷回复 【右侧内容,后台自定义】
您需要登录后才可以回帖 登录 | 立即加入

本版积分规则

Archiver|小黑屋| 蓝光电影网 |网站地图

Copyright © 2021 Comsenz Inc. Powered by 蓝光电影网

蓝光电影网

本站内容由用户自主分享和转载自互联网,转载目的在于传递更多信息,并不代表本网赞同其观点和对其真实性负责。

如有侵权、违反国家法律政策行为,请联系我们,我们会第一时间及时清除和处理!

举报反馈邮箱:[email protected]

快速回复 返回顶部 返回列表