找回密码

蓝光电影网

查看: 585|回复: 2

[剧情] 蝴蝶效应 The.Butterfly.Effect.2004.DC.1080p.BluRay.REMUX.AVC.DTS-HD.MA.6.1-FGT 20.16GB

[复制链接]
蓝光币
382
发表于 2020-1-24 11:23:52 | 显示全部楼层 |阅读模式
蝴蝶效应 The.Butterfly.Effect.2004.DC.1080p.BluRay.REMUX.AVC.DTS-HD.MA.6.1-FGT 20.16GB-1.png

译  名 蝴蝶效应
片  名 The Butterfly Effect
年  代 2004
产  地 美国 / 加拿大
类  别 剧情 / 科幻 / 悬疑 / 惊悚
语  言 英语
上映日期 2004-01-23(美国)
IMDb评分  7.6/10 from 432291 users
IMDb链接  https://www.imdb.com/title/tt0289879
豆瓣评分 8.8/10 from 599294 users
豆瓣链接 https://movie.douban.com/subject/1292343/
片  长 113分钟
导  演 埃里克·布雷斯 Eric Bress / J·麦基·格鲁伯 J. Mackye Gruber
编  剧 J·麦基·格鲁伯 J. Mackye Gruber / 埃里克·布雷斯 Eric Bress
主  演 阿什顿·库彻 Ashton Kutcher
       梅罗拉·沃特斯 Melora Walters
       艾米·斯马特 Amy Smart
       埃尔登·汉森 Elden Henson
       威廉姆·李·斯科特 William Lee Scott
       约翰·帕特里克·阿梅多利 John Patrick Amedori
       艾琳·戈洛瓦娅 Irene Gorovaia
       凯文·G·施密特 Kevin G. Schmidt
       杰西·詹姆斯 Jesse James
       罗根·勒曼 Logan Lerman
       莎拉·威多斯 Sarah Widdows
       杰克·凯斯 Jake Kaese
       卡梅隆·布莱特 Cameron Bright
       埃里克·斯托尔兹 Eric Stoltz
       考乐姆·吉斯·雷尼 Callum Keith Rennie


标  签 悬疑 | 心理 | 科幻 | 美国 | 剧情 | 惊悚 | 典范 | 人性

简  介  

  伊万(艾什顿·库奇 Ashton Kutcher 饰)已经有一个糟糕的童年,由于他行为闯下了大祸,令他童年布满不胜回忆的往事。而究竟上,他确切只是模糊记得一点可怕的情形,这些情形一向纠缠着他的一般生活。伊万接管心理学家倡议,把噜苏生活记在记事本里,却偶然发现经过记事本回到曩昔。
  这时他才清楚记起,童年时辰的自己做了那末多的错事。他空想着用现在的认识,潜入童年的身材,去填补各种过失给人们带来的危险,特别是希望与昔时暗恋的凯西终极走回一路。但是他一次次的跨越时空的变动,只能越来越招致现实天下的不成救药。一切就像蝴蝶效应般,牵一发而动满身。
  1. Video
  2. ID                                       : 1
  3. Format                                   : AVC
  4. Format/Info                              : Advanced Video Codec
  5. Format profile                           : [email protected]
  6. Format settings                          : CABAC / 2 Ref Frames
  7. Format settings, CABAC                   : Yes
  8. Format settings, Reference frames        : 2 frames
  9. Format settings, GOP                     : M=1, N=10
  10. Codec ID                                 : V_MPEG4/ISO/AVC
  11. Duration                                 : 1 h 59 min
  12. Bit rate mode                            : Variable
  13. Bit rate                                 : 16.5 Mb/s
  14. Width                                    : 1 920 pixels
  15. Height                                   : 1 080 pixels
  16. Display aspect ratio                     : 16:9
  17. Frame rate mode                          : Constant
  18. Frame rate                               : 23.976 (24000/1001) FPS
  19. Color space                              : YUV
  20. Chroma subsampling                       : 4:2:0
  21. Bit depth                                : 8 bits
  22. Scan type                                : Progressive
  23. Bits/(Pixel*Frame)                       : 0.331
  24. Stream size                              : 13.7 GiB (68%)
  25. Title                                    : The.Butterfly.Effect.2004.DC.1080p.BluRay.REMUX.AVC.DTS-HD.MA.6.1-FGT
  26. Language                                 : English
  27. Default                                  : No
  28. Forced                                   : No

  29. Audio #1
  30. ID                                       : 2
  31. Format                                   : DTS ES XXCH XLL
  32. Format/Info                              : Digital Theater Systems
  33. Commercial name                          : DTS-HD Master Audio
  34. Codec ID                                 : A_DTS
  35. Duration                                 : 1 h 59 min
  36. Bit rate mode                            : Variable
  37. Bit rate                                 : 3 821 kb/s
  38. Channel(s)                               : 7 channels
  39. Channel layout                           : C L R Ls Rs LFE Cb
  40. Sampling rate                            : 48.0 kHz
  41. Frame rate                               : 93.750 FPS (512 SPF)
  42. Bit depth                                : 24 bits
  43. Compression mode                         : Lossless
  44. Stream size                              : 3.19 GiB (16%)
  45. Title                                    : The.Butterfly.Effect.2004.DC.1080p.BluRay.REMUX.AVC.DTS-HD.MA.6.1-FGT
  46. Language                                 : English
  47. Default                                  : Yes
  48. Forced                                   : No

  49. Audio #2
  50. ID                                       : 3
  51. Format                                   : DTS ES XXCH XLL
  52. Format/Info                              : Digital Theater Systems
  53. Commercial name                          : DTS-HD Master Audio
  54. Codec ID                                 : A_DTS
  55. Duration                                 : 1 h 59 min
  56. Bit rate mode                            : Variable
  57. Bit rate                                 : 3 821 kb/s
  58. Channel(s)                               : 7 channels
  59. Channel layout                           : C L R Ls Rs LFE Cb
  60. Sampling rate                            : 48.0 kHz
  61. Frame rate                               : 93.750 FPS (512 SPF)
  62. Bit depth                                : 24 bits
  63. Compression mode                         : Lossless
  64. Stream size                              : 3.19 GiB (16%)
  65. Title                                    : The.Butterfly.Effect.2004.DC.1080p.BluRay.REMUX.AVC.DTS-HD.MA.6.1-FGT
  66. Language                                 : English
  67. Default                                  : No
  68. Forced                                   : No

  69. Text #1
  70. ID                                       : 4
  71. Format                                   : PGS
  72. Muxing mode                              : zlib
  73. Codec ID                                 : S_HDMV/PGS
  74. Codec ID/Info                            : Picture based subtitle format used on BDs/HD-DVDs
  75. Duration                                 : 1 h 58 min
  76. Bit rate                                 : 32.7 kb/s
  77. Count of elements                        : 3194
  78. Stream size                              : 27.7 MiB (0%)
  79. Title                                    : English-PGS
  80. Language                                 : English
  81. Default                                  : Yes
  82. Forced                                   : No

  83. Text #2
  84. ID                                       : 5
  85. Format                                   : PGS
  86. Muxing mode                              : zlib
  87. Codec ID                                 : S_HDMV/PGS
  88. Codec ID/Info                            : Picture based subtitle format used on BDs/HD-DVDs
  89. Duration                                 : 1 h 59 min
  90. Bit rate                                 : 28.5 kb/s
  91. Count of elements                        : 2810
  92. Stream size                              : 24.2 MiB (0%)
  93. Title                                    : Spanish-PGS
  94. Language                                 : Spanish
  95. Default                                  : No
  96. Forced                                   : No

  97. Menu
  98. 00:00:00.000                             : en:Chapter 01
  99. 00:06:28.971                             : en:Chapter 02
  100. 00:11:17.635                             : en:Chapter 03
  101. 00:16:29.029                             : en:Chapter 04
  102. 00:22:48.450                             : en:Chapter 05
  103. 00:26:49.733                             : en:Chapter 06
  104. 00:31:20.461                             : en:Chapter 07
  105. 00:38:53.497                             : en:Chapter 08
  106. 00:44:15.736                             : en:Chapter 09
  107. 00:51:03.185                             : en:Chapter 10
  108. 00:54:35.438                             : en:Chapter 11
  109. 01:02:38.504                             : en:Chapter 12
  110. 01:09:47.308                             : en:Chapter 13
  111. 01:16:08.146                             : en:Chapter 14
  112. 01:20:27.155                             : en:Chapter 15
  113. 01:27:32.830                             : en:Chapter 16
  114. 01:34:01.093                             : en:Chapter 17
  115. 01:42:03.909                             : en:Chapter 18
  116. 01:47:12.801                             : en:Chapter 19
  117. 01:51:03.323                             : en:Chapter 20
  118. 01:53:55.703                             : en:Chapter 21
复制代码

蝴蝶效应 The.Butterfly.Effect.2004.DC.1080p.BluRay.REMUX.AVC.DTS-HD.MA.6.1-FGT 20.16GB-2.png 蝴蝶效应 The.Butterfly.Effect.2004.DC.1080p.BluRay.REMUX.AVC.DTS-HD.MA.6.1-FGT 20.16GB-3.png 蝴蝶效应 The.Butterfly.Effect.2004.DC.1080p.BluRay.REMUX.AVC.DTS-HD.MA.6.1-FGT 20.16GB-4.png






回复

使用道具 举报

蓝光币
19
发表于 2020-1-26 02:35:49 来自手机 | 显示全部楼层
蝴蝶效应
回复

使用道具 举报

蓝光币
224
发表于 2020-12-9 20:14:26 | 显示全部楼层

这东西我收了!谢谢楼主!蓝光电影网真好!
回复 支持 反对

使用道具 举报

懒得打字嘛,点击右侧快捷回复 【右侧内容,后台自定义】
您需要登录后才可以回帖 登录 | 立即加入

本版积分规则

Archiver|小黑屋| 蓝光电影网 |网站地图

Copyright © 2021 Comsenz Inc. Powered by 蓝光电影网

蓝光电影网

本站内容由用户自主分享和转载自互联网,转载目的在于传递更多信息,并不代表本网赞同其观点和对其真实性负责。

如有侵权、违反国家法律政策行为,请联系我们,我们会第一时间及时清除和处理!

举报反馈邮箱:[email protected]

快速回复 返回顶部 返回列表