找回密码

蓝光电影网

查看: 389|回复: 3

[科幻] 血腥战场 Mindwarp.1992.THEATRICAL.720p.BluRay.x264-CREEPSHOW 5.45GB

[复制链接]
蓝光币
426
发表于 2020-1-24 11:30:52 | 显示全部楼层 |阅读模式
血腥疆场 Mindwarp.1992.THEATRICAL.720p.BluRay.x264-CREEPSHOW 5.45GB-1.png

译  名 血腥疆场 / brain slasher
片  名 Mindwarp
年  代 1992
产  地 美国
类  别 科幻 / 惊悚 / 可骇
语  言 英语
上映日期 1992
IMDb评分  5.3/10 from 2016 users
IMDb链接  https://www.imdb.com/title/tt0100152
豆瓣评分 6.5/10 from 114 users
豆瓣链接 https://movie.douban.com/subject/5114433/
片  长 91 分钟
导  演 Steve Barnett
编  剧 John D. Brancato
主  演 布鲁斯.坎贝尔
       安格斯.史奎姆
       Marta Alicia


标  签 科幻 | 可骇 | 惊悚 | 美国 | 美国电影 | 血腥&CULT | B级片 | 赛博朋克

简  介  

  时候来到2037年,核子灾难扑灭了地球,幸存者都退却到”內天下”,一个隔断封锁的生物圈,由电脑掌控一切生命,可是绮年玉貌的茱蒂挺身抵挡这类放置好的生命形状,希望能体验实在的人生,因而生物圈的系统操纵者就将她放逐到布满突变生物的「外天下」。外天下有很多畸形的食人怪,他们希望茱蒂能和他们邪恶的带领繁衍后代。茱蒂能否能逃出这个荒地,还是她会成为食人怪的嘴上肉呢?
  1. Video
  2. ID                                       : 1
  3. Format                                   : AVC
  4. Format/Info                              : Advanced Video Codec
  5. Format profile                           : [email protected]
  6. Format settings                          : CABAC / 5 Ref Frames
  7. Format settings, CABAC                   : Yes
  8. Format settings, Reference frames        : 5 frames
  9. Codec ID                                 : V_MPEG4/ISO/AVC
  10. Duration                                 : 1 h 35 min
  11. Bit rate                                 : 6 667 kb/s
  12. Width                                    : 1 280 pixels
  13. Height                                   : 696 pixels
  14. Display aspect ratio                     : 1.85:1
  15. Frame rate mode                          : Constant
  16. Frame rate                               : 23.976 (24000/1001) FPS
  17. Color space                              : YUV
  18. Chroma subsampling                       : 4:2:0
  19. Bit depth                                : 8 bits
  20. Scan type                                : Progressive
  21. Bits/(Pixel*Frame)                       : 0.312
  22. Stream size                              : 4.44 GiB (82%)
  23. Writing library                          : x264 core 157 r2969 d4099dd
  24. Encoding settings                        : cabac=1 / ref=5 / deblock=1:-2:-2 / analyse=0x3:0x133 / me=umh / subme=9 / psy=1 / psy_rd=1.00:0.00 / mixed_ref=1 / me_range=16 / chroma_me=1 / trellis=2 / 8x8dct=1 / cqm=0 / deadzone=21,11 / fast_pskip=0 / chroma_qp_offset=-2 / threads=12 / lookahead_threads=1 / sliced_threads=0 / nr=0 / decimate=1 / interlaced=0 / bluray_compat=0 / constrained_intra=0 / bframes=3 / b_pyramid=2 / b_adapt=2 / b_bias=0 / direct=3 / weightb=1 / open_gop=0 / weightp=2 / keyint=240 / keyint_min=23 / scenecut=40 / intra_refresh=0 / rc_lookahead=50 / rc=2pass / mbtree=1 / bitrate=6667 / ratetol=1.0 / qcomp=0.60 / qpmin=0 / qpmax=69 / qpstep=4 / cplxblur=20.0 / qblur=0.5 / vbv_maxrate=62500 / vbv_bufsize=78125 / nal_hrd=none / filler=0 / ip_ratio=1.40 / aq=1:0.70
  25. Default                                  : Yes
  26. Forced                                   : No

  27. Audio
  28. ID                                       : 2
  29. Format                                   : DTS
  30. Format/Info                              : Digital Theater Systems
  31. Codec ID                                 : A_DTS
  32. Duration                                 : 1 h 35 min
  33. Bit rate mode                            : Constant
  34. Bit rate                                 : 1 509 kb/s
  35. Channel(s)                               : 2 channels
  36. Channel layout                           : L R
  37. Sampling rate                            : 48.0 kHz
  38. Frame rate                               : 93.750 FPS (512 SPF)
  39. Bit depth                                : 24 bits
  40. Compression mode                         : Lossy
  41. Stream size                              : 1.01 GiB (18%)
  42. Language                                 : English
  43. Default                                  : Yes
  44. Forced                                   : No

  45. Menu
  46. 00:00:00.000                             : en:Chapter 01
  47. 00:08:00.480                             : en:Chapter 02
  48. 00:16:00.960                             : en:Chapter 03
  49. 00:24:01.440                             : en:Chapter 04
  50. 00:32:01.920                             : en:Chapter 05
  51. 00:40:03.401                             : en:Chapter 06
  52. 00:48:02.880                             : en:Chapter 07
  53. 00:56:03.360                             : en:Chapter 08
  54. 01:04:03.840                             : en:Chapter 09
  55. 01:12:04.320                             : en:Chapter 10
  56. 01:20:04.800                             : en:Chapter 11
  57. 01:30:05.400                             : en:Chapter 12
复制代码

血腥疆场 Mindwarp.1992.THEATRICAL.720p.BluRay.x264-CREEPSHOW 5.45GB-2.png






回复

使用道具 举报

蓝光币
166
发表于 2020-8-9 02:05:48 | 显示全部楼层

论坛不能没有像楼主这样的人才啊!我会一直支持蓝光电影网
回复 支持 反对

使用道具 举报

懒得打字嘛,点击右侧快捷回复 【右侧内容,后台自定义】
您需要登录后才可以回帖 登录 | 立即加入

本版积分规则

Archiver|小黑屋| 蓝光电影网 |网站地图

Copyright © 2021 Comsenz Inc. Powered by 蓝光电影网

蓝光电影网

本站内容由用户自主分享和转载自互联网,转载目的在于传递更多信息,并不代表本网赞同其观点和对其真实性负责。

如有侵权、违反国家法律政策行为,请联系我们,我们会第一时间及时清除和处理!

举报反馈邮箱:[email protected]

快速回复 返回顶部 返回列表