找回密码

蓝光电影网

查看: 1742|回复: 2

[剧情] 蝴蝶效应 The.Butterfly.Effect.2004.DC.1080p.BluRay.x264.DTS-FGT 10.98GB

[复制链接]
蓝光币
382
发表于 2020-1-24 11:32:36 | 显示全部楼层 |阅读模式
蝴蝶效应 The.Butterfly.Effect.2004.DC.1080p.BluRay.x264.DTS-FGT 10.98GB-1.png

译  名 蝴蝶效应
片  名 The Butterfly Effect
年  代 2004
产  地 美国 / 加拿大
类  别 剧情 / 科幻 / 悬疑 / 惊悚
语  言 英语
上映日期 2004-01-23(美国)
IMDb评分  7.6/10 from 432291 users
IMDb链接  https://www.imdb.com/title/tt0289879
豆瓣评分 8.8/10 from 599294 users
豆瓣链接 https://movie.douban.com/subject/1292343/
片  长 113分钟
导  演 埃里克·布雷斯 Eric Bress / J·麦基·格鲁伯 J. Mackye Gruber
编  剧 J·麦基·格鲁伯 J. Mackye Gruber / 埃里克·布雷斯 Eric Bress
主  演 阿什顿·库彻 Ashton Kutcher
       梅罗拉·沃特斯 Melora Walters
       艾米·斯马特 Amy Smart
       埃尔登·汉森 Elden Henson
       威廉姆·李·斯科特 William Lee Scott
       约翰·帕特里克·阿梅多利 John Patrick Amedori
       艾琳·戈洛瓦娅 Irene Gorovaia
       凯文·G·施密特 Kevin G. Schmidt
       杰西·詹姆斯 Jesse James
       罗根·勒曼 Logan Lerman
       莎拉·威多斯 Sarah Widdows
       杰克·凯斯 Jake Kaese
       卡梅隆·布莱特 Cameron Bright
       埃里克·斯托尔兹 Eric Stoltz
       考乐姆·吉斯·雷尼 Callum Keith Rennie


标  签 悬疑 | 心理 | 科幻 | 美国 | 剧情 | 惊悚 | 典范 | 人性

简  介  

  伊万(艾什顿·库奇 Ashton Kutcher 饰)已经有一个糟糕的童年,由于他行为闯下了大祸,令他童年布满不胜回忆的往事。而究竟上,他确切只是模糊记得一点可怕的情形,这些情形一向纠缠着他的一般生活。伊万接管心理学家倡议,把噜苏生活记在记事本里,却偶然发现经过记事本回到曩昔。
  这时他才清楚记起,童年时辰的自己做了那末多的错事。他空想着用现在的认识,潜入童年的身材,去填补各种过失给人们带来的危险,特别是希望与昔时暗恋的凯西终极走回一路。但是他一次次的跨越时空的变动,只能越来越招致现实天下的不成救药。一切就像蝴蝶效应般,牵一发而动满身。
  1. Video
  2. ID                                       : 1
  3. Format                                   : AVC
  4. Format/Info                              : Advanced Video Codec
  5. Format profile                           : [email protected]
  6. Format settings                          : CABAC / 4 Ref Frames
  7. Format settings, CABAC                   : Yes
  8. Format settings, Reference frames        : 4 frames
  9. Codec ID                                 : V_MPEG4/ISO/AVC
  10. Duration                                 : 1 h 59 min
  11. Bit rate                                 : 11.6 Mb/s
  12. Width                                    : 1 920 pixels
  13. Height                                   : 1 080 pixels
  14. Display aspect ratio                     : 16:9
  15. Frame rate mode                          : Constant
  16. Frame rate                               : 23.976 (24000/1001) FPS
  17. Color space                              : YUV
  18. Chroma subsampling                       : 4:2:0
  19. Bit depth                                : 8 bits
  20. Scan type                                : Progressive
  21. Bits/(Pixel*Frame)                       : 0.234
  22. Stream size                              : 9.50 GiB (87%)
  23. Writing library                          : x264 core 67 r1145M d2e1e1c
  24. Encoding settings                        : cabac=1 / ref=4 / deblock=1:-3:-3 / analyse=0x3:0x113 / me=umh / subme=9 / psy_rd=1.2:0.2 / mixed_ref=1 / me_range=64 / chroma_me=1 / trellis=2 / 8x8dct=1 / cqm=0 / deadzone=21,11 / chroma_qp_offset=-3 / threads=6 / nr=0 / decimate=0 / mbaff=0 / bframes=5 / b_pyramid=1 / b_adapt=2 / b_bias=0 / direct=3 / wpredb=1 / keyint=250 / keyint_min=25 / scenecut=40 / rc=2pass / bitrate=11625 / ratetol=1.0 / qcomp=0.60 / qpmin=10 / qpmax=51 / qpstep=4 / cplxblur=20.0 / qblur=0.5 / ip_ratio=1.40 / pb_ratio=1.30 / aq=1:0.90
  25. Language                                 : English
  26. Default                                  : Yes
  27. Forced                                   : No

  28. Audio
  29. ID                                       : 2
  30. Format                                   : DTS
  31. Format/Info                              : Digital Theater Systems
  32. Codec ID                                 : A_DTS
  33. Duration                                 : 1 h 59 min
  34. Bit rate mode                            : Constant
  35. Bit rate                                 : 1 510 kb/s
  36. Channel(s)                               : 6 channels
  37. Channel layout                           : C L R Ls Rs LFE
  38. Sampling rate                            : 48.0 kHz
  39. Frame rate                               : 93.750 FPS (512 SPF)
  40. Bit depth                                : 24 bits
  41. Compression mode                         : Lossy
  42. Stream size                              : 1.26 GiB (11%)
  43. Language                                 : English
  44. Default                                  : Yes
  45. Forced                                   : No
复制代码

蝴蝶效应 The.Butterfly.Effect.2004.DC.1080p.BluRay.x264.DTS-FGT 10.98GB-2.png 蝴蝶效应 The.Butterfly.Effect.2004.DC.1080p.BluRay.x264.DTS-FGT 10.98GB-3.png 蝴蝶效应 The.Butterfly.Effect.2004.DC.1080p.BluRay.x264.DTS-FGT 10.98GB-4.png




回复

使用道具 举报

蓝光币
643
发表于 2020-1-25 17:31:58 | 显示全部楼层
谢谢楼主无私分享。
回复 支持 反对

使用道具 举报

蓝光币
115
发表于 2020-1-25 19:10:13 | 显示全部楼层

感谢楼主的无私分享!要想蓝光电影网好 就靠你我他
回复 支持 反对

使用道具 举报

懒得打字嘛,点击右侧快捷回复 【右侧内容,后台自定义】
您需要登录后才可以回帖 登录 | 立即加入

本版积分规则

Archiver|小黑屋| 蓝光电影网 |网站地图

Copyright © 2021 Comsenz Inc. Powered by 蓝光电影网

蓝光电影网

本站内容由用户自主分享和转载自互联网,转载目的在于传递更多信息,并不代表本网赞同其观点和对其真实性负责。

如有侵权、违反国家法律政策行为,请联系我们,我们会第一时间及时清除和处理!

举报反馈邮箱:[email protected]

快速回复 返回顶部 返回列表