找回密码

蓝光电影网

查看: 721|回复: 7

[喜剧] 救火奶爸/烈火湊仔公 Playing.with.Fire.2019.1080p.BluRay.x264.DTS-HD.MA.5.1-FGT 7.96GB

[复制链接]
蓝光币
426
发表于 2020-1-25 12:30:13 | 显示全部楼层 |阅读模式
救火奶爸/猛火湊仔公 Playing.with.Fire.2019.1080p.BluRay.x264.DTS-HD.MA.5.1-FGT 7.96GB-1.png

译  名 救火奶爸 / 猛火湊仔公(港) / 玩火
片  名 Playing with Fire
年  代 2019
产  地 美国
类  别 笑剧 / 家庭
语  言 英语
上映日期 2019-11-08(美国)
IMDb评分  4.7/10 from 2581 users
IMDb链接  https://www.imdb.com/title/tt9134216
豆瓣评分 4.8/10 from 86 users
豆瓣链接 https://movie.douban.com/subject/30428030/
片  长 96分钟
导  演 安迪·菲克曼 Andy Fickman
编  剧 马特·利伯曼 Matt Lieberman / 丹·埃文 Dan Ewen
主  演 约翰·塞纳 John Cena
       布里安娜·希德布兰德 Brianna Hildebrand
       朱迪·格雷尔 Judy Greer
       科甘-迈克尔·凯 Keegan-Michael Key
       约翰·雷吉扎莫 John Leguizamo
       克里斯蒂安·康佛瑞 Christian Convery
       芬利·罗斯·斯莱特 Finley Rose Slater
       丹尼斯·海斯伯特 Dennis Haysbert
       库尔特·隆 Kurt Long
       泰勒·梅恩 Tyler Mane
       贾思敏·维嘉 Jasmine Vega
       琳达·博伊德 Lynda Boyd


标  签 笑剧 | 美国 | 家庭 | 2019 | 派拉蒙 | 欧美 | 动画 | 日本

简  介  

  报告了“赵喜娜”率队的消防员们在一次救火行动后竟遭受人生最大应战:要照顾从火场救出的三位萌娃,直到他们被爸妈接走。队员们“被迫营业”变身奶爸,人小鬼大的姐弟三人组完全倾覆了消防队的平常生活,状态百出笑料不竭,而猛火豪杰硬核带娃竟也萌出天涯!影片将于2019年11月8日北美上映。
  1. Video
  2. ID                                       : 1
  3. Format                                   : AVC
  4. Format/Info                              : Advanced Video Codec
  5. Format profile                           : [email protected]
  6. Format settings                          : CABAC / 4 Ref Frames
  7. Format settings, CABAC                   : Yes
  8. Format settings, Reference frames        : 4 frames
  9. Codec ID                                 : V_MPEG4/ISO/AVC
  10. Duration                                 : 1 h 35 min
  11. Bit rate                                 : 8 267 kb/s
  12. Width                                    : 1 920 pixels
  13. Height                                   : 1 080 pixels
  14. Display aspect ratio                     : 16:9
  15. Frame rate mode                          : Constant
  16. Frame rate                               : 23.976 (24000/1001) FPS
  17. Color space                              : YUV
  18. Chroma subsampling                       : 4:2:0
  19. Bit depth                                : 8 bits
  20. Scan type                                : Progressive
  21. Bits/(Pixel*Frame)                       : 0.166
  22. Stream size                              : 5.54 GiB (70%)
  23. Title                                    : Playing.with.Fire.2019.1080p.BluRay.x264.DTS-HD.MA.5.1-FGT
  24. Writing library                          : x264 core 157 r2969 d4099dd
  25. Encoding settings                        : cabac=1 / ref=4 / deblock=1:0:0 / analyse=0x3:0x113 / me=umh / subme=8 / psy=1 / psy_rd=1.00:0.00 / mixed_ref=1 / me_range=16 / chroma_me=1 / trellis=1 / 8x8dct=1 / cqm=0 / deadzone=21,11 / fast_pskip=1 / chroma_qp_offset=-2 / threads=16 / lookahead_threads=2 / sliced_threads=0 / nr=0 / decimate=1 / interlaced=0 / bluray_compat=0 / constrained_intra=0 / bframes=3 / b_pyramid=2 / b_adapt=2 / b_bias=0 / direct=3 / weightb=1 / open_gop=0 / weightp=2 / keyint=240 / keyint_min=23 / scenecut=40 / intra_refresh=0 / rc_lookahead=50 / rc=2pass / mbtree=1 / bitrate=8267 / ratetol=1.0 / qcomp=0.60 / qpmin=0 / qpmax=69 / qpstep=4 / cplxblur=20.0 / qblur=0.5 / ip_ratio=1.40 / aq=1:1.00
  26. Language                                 : English
  27. Default                                  : Yes
  28. Forced                                   : No

  29. Audio
  30. ID                                       : 2
  31. Format                                   : DTS XLL
  32. Format/Info                              : Digital Theater Systems
  33. Commercial name                          : DTS-HD Master Audio
  34. Codec ID                                 : A_DTS
  35. Duration                                 : 1 h 35 min
  36. Bit rate mode                            : Variable
  37. Bit rate                                 : 3 593 kb/s
  38. Channel(s)                               : 6 channels
  39. Channel layout                           : C L R Ls Rs LFE
  40. Sampling rate                            : 48.0 kHz
  41. Frame rate                               : 93.750 FPS (512 SPF)
  42. Bit depth                                : 24 bits
  43. Compression mode                         : Lossless
  44. Stream size                              : 2.41 GiB (30%)
  45. Title                                    : Playing.with.Fire.2019.1080p.BluRay.x264.DTS-HD.MA.5.1-FGT
  46. Language                                 : English
  47. Default                                  : Yes
  48. Forced                                   : No

  49. Text #1
  50. ID                                       : 3
  51. Format                                   : UTF-8
  52. Codec ID                                 : S_TEXT/UTF8
  53. Codec ID/Info                            : UTF-8 Plain Text
  54. Duration                                 : 1 h 30 min
  55. Bit rate                                 : 73 b/s
  56. Count of elements                        : 1576
  57. Stream size                              : 48.9 KiB (0%)
  58. Title                                    : English-SRT
  59. Language                                 : English
  60. Default                                  : Yes
  61. Forced                                   : No

  62. Text #2
  63. ID                                       : 4
  64. Format                                   : PGS
  65. Muxing mode                              : zlib
  66. Codec ID                                 : S_HDMV/PGS
  67. Codec ID/Info                            : Picture based subtitle format used on BDs/HD-DVDs
  68. Duration                                 : 1 h 30 min
  69. Bit rate                                 : 45.4 kb/s
  70. Count of elements                        : 3042
  71. Stream size                              : 29.4 MiB (0%)
  72. Title                                    : English-PGS
  73. Language                                 : English
  74. Default                                  : No
  75. Forced                                   : No

  76. Menu
  77. 00:00:00.000                             : :Chapter 01
  78. 00:04:34.483                             : :Chapter 02
  79. 00:11:38.823                             : :Chapter 03
  80. 00:18:42.246                             : :Chapter 04
  81. 00:23:04.675                             : :Chapter 05
  82. 00:28:04.224                             : :Chapter 06
  83. 00:32:23.984                             : :Chapter 07
  84. 00:41:30.571                             : :Chapter 08
  85. 00:48:22.399                             : :Chapter 09
  86. 00:52:17.760                             : :Chapter 10
  87. 00:57:26.693                             : :Chapter 11
  88. 01:02:15.231                             : :Chapter 12
  89. 01:10:37.525                             : :Chapter 13
  90. 01:16:56.237                             : :Chapter 14
  91. 01:23:43.852                             : :Chapter 15
  92. 01:29:19.271                             : :Chapter 16
复制代码

救火奶爸/猛火湊仔公 Playing.with.Fire.2019.1080p.BluRay.x264.DTS-HD.MA.5.1-FGT 7.96GB-2.png 救火奶爸/猛火湊仔公 Playing.with.Fire.2019.1080p.BluRay.x264.DTS-HD.MA.5.1-FGT 7.96GB-3.png 救火奶爸/猛火湊仔公 Playing.with.Fire.2019.1080p.BluRay.x264.DTS-HD.MA.5.1-FGT 7.96GB-4.png






回复

使用道具 举报

蓝光币
1484
发表于 2020-1-28 12:08:32 | 显示全部楼层
楼主发贴辛苦了,谢谢楼主分享!我觉得蓝光电影网是注册对了!
回复 支持 反对

使用道具 举报

蓝光币
15
发表于 2020-1-29 21:51:00 | 显示全部楼层

这个帖子不回对不起自己!我想我是一天也不能离开蓝光电影网
回复 支持 反对

使用道具 举报

懒得打字嘛,点击右侧快捷回复 【右侧内容,后台自定义】
您需要登录后才可以回帖 登录 | 立即加入

本版积分规则

Archiver|小黑屋| 蓝光电影网 |网站地图

Copyright © 2021 Comsenz Inc. Powered by 蓝光电影网

蓝光电影网

本站内容由用户自主分享和转载自互联网,转载目的在于传递更多信息,并不代表本网赞同其观点和对其真实性负责。

如有侵权、违反国家法律政策行为,请联系我们,我们会第一时间及时清除和处理!

举报反馈邮箱:[email protected]

快速回复 返回顶部 返回列表